Классический форум-трекер
canvas not supported
Нас вместе: 4 077 802

Эти свободные бабочки (1993) VHSRip (Русский театр Эстонии)


 
 
RSS
Начать новую тему   Ответить на тему    Торрент-трекер NNM-Club -> Архив торрентов -> Архив Музыкального Видео
Автор Сообщение
Николай Анатольевич ®
   
Почетный релизер
 
Стаж: 9 лет 8 мес.
Сообщений: 46540
Ratio: 10,32
Раздал: 7,411 TB
Поблагодарили: 2602308
100%
estonia.gif
Эти свободные бабочки (1993) VHSRip (Русский театр Эстонии)
Оригинальное название: Эти свободные бабочки
Русское название: Эти свободные бабочки
Год выпуска: 1993
Жанр: Комедия
Название театра: Русский театр Эстонии

Описание:
В нью-йоркской квартире случайными соседями оказываются молодой человек, с рождения обделённый природой, и очаровательная, но легкомысленная девушка. В их отношения постоянно вмешивается мудрая и любящая мать героя.

Режиссер: Валерий Филонов
Постановка: Валерий Филонов
Сценография : Владимир Аншон
Костюмы: Наталья Осипова (Санкт-Петербург)
В ролях:
Дональд Бейкер - Александр Ивашкевич
Джил Теннер - Лариса Саванкова
Миссис Бейкер - Тамара Солодникова
Ральф Остин - Владимир Антипп

Продолжительность: 01:43:51
Качество видео: VHSRip

Видеокодек: XviD
Битрейт видео: 1198 Кбит/сек
Размер кадра: 720x576
Аудио: Русский, MPEG Audio Layer 3, 48000Hz, 2ch, 128 Кбит/сек
Общее
Полное имя : F:\Раздачи\Раздачи Театр\Эти свободные бабочки (1993) VHSRip (Русский театр Эстонии).avi
Формат : AVI
Формат/Информация : Audio Video Interleave
Размер файла : 995 Мбайт
Продолжительность : 1 ч. 43 м.
Общий поток : 1339 Кбит/сек

Видео
Идентификатор : 0
Формат : MPEG-4 Visual
Профиль формата : Simple@L3
Параметр BVOP формата : Нет
Параметр QPel формата : Нет
Параметр GMC формата : Без точки перехода
Параметр матрицы формата : Default (H.263)
Идентификатор кодека : XVID
Идентификатор кодека/Подсказка : XviD
Продолжительность : 1 ч. 43 м.
Битрейт : 1198 Кбит/сек
Ширина : 720 пикселей
Высота : 576 пикселей
Соотношение сторон : 5:4
Частота кадров : 25,000 кадров/сек
Стандарт вещания : PAL
Цветовое пространство : YUV
Субдискретизация насыщенности : 4:2:0
Битовая глубина : 8 бит
Тип развёртки : Прогрессивная
Метод сжатия : С потерями
Бит/(Пиксели*Кадры) : 0.116
Размер потока : 890 Мбайт (89%)
Библиотека кодирования : XviD 1.1.0 Beta2 (UTC 2005-04-04)

Аудио
Идентификатор : 1
Формат : MPEG Audio
Версия формата : Version 1
Профиль формата : Layer 3
Режим : Joint stereo
Расширение режима : MS Stereo
Идентификатор кодека : 55
Идентификатор кодека/Подсказка : MP3
Продолжительность : 1 ч. 43 м.
Вид битрейта : Постоянный
Битрейт : 128 Кбит/сек
Каналы : 2 канала
Частота : 48,0 КГц
Метод сжатия : С потерями
Размер потока : 95,1 Мбайт (10%)
Выравнивание : Соединение по промежуткам
Продолжительность промежутка : 24 мс. (0,60 видеокадр)
Скриншоты:


Время раздачи: 9.00 - 23.00 (по мере возможности...)
[NNM-Club.ru]_YEti svobodnyie babochki (1993) VHSRip (Russkiy teatr YEstonii).avi.torrent
 Торрент: Золотая раздача  Зарегистрирован
 
Зарегистрируйтесь и скачайте торрент!
20 KB

Примагнититься
 Зарегистрирован:   10 Апр 2012 19:34:15
 Размер:   995 MB  (
 Рейтинг:    (Голосов: 9)
 Поблагодарили:   17
 Проверка:   Оформление проверено модератором 10 Апр 2012 19:53:59
Как cкачать  ·  Как раздать  ·  Правильно оформить  ·  Поднять ратио!  
Топик был перенесен из форума Театр в форум Архив Музыкального Видео

Причина переноса: Раздающего не было более месяца.
Robert Ingil
Показать сообщения:   
Начать новую тему   Ответить на тему    Торрент-трекер NNM-Club -> Архив торрентов -> Архив Музыкального Видео Часовой пояс: GMT + 3
Страница 1 из 1