Классический форум-трекер
canvas not supported
Нас вместе: 4 077 864

Oksi - Любить За Двоих (2012) [H.264] WEBRip


 
 
RSS
Начать новую тему   Ответить на тему    Торрент-трекер NNM-Club -> Архив торрентов -> Архив Музыкального Видео
Автор Сообщение
FedExe ®
Uploader 300+
Стаж: 9 лет 3 мес.
Сообщений: 9667
Ratio: 381,126
Поблагодарили: 926072
100%
Откуда: LoX - living off experien
Oksi - Любить За Двоих (2012)
Год выхода : 2012
Исполнитель : Oksi
Название : Любить За Двоих
Продолжительность : 00:03:31
Жанр : Pop

Видеокодек: MPEG4 Video (AVC)
Битрейт видео: 3 729 Kbps
Размер кадра: 2 048x1 152
Качество видео: WEBRip
Аудиокодек: AAC
Битрейт аудио: 151 Kbps 2 channels
Код:
General

Format                           : MPEG-4
Format profile                   : Base Media / Version 2
Codec ID                         : mp42
File size                        : 98.0 MiB
Duration                         : 3mn 31s
Overall bit rate                 : 3 883 Kbps
Encoded date                     : UTC 2012-04-15 00:08:41
Tagged date                      : UTC 2012-04-15 00:08:41
gsst                             : 0
gstd                             : 211765
gssd                             : B4A7DDAC3HH1334568536142281
gshh                             : o-o.preferred.fra07t11.v3.cache7.c.youtube.com

Video
ID                               : 1
Format                           : AVC
Format/Info                      : Advanced Video Codec
Format profile                   : High@L5.0
Format settings, CABAC           : Yes
Format settings, ReFrames        : 1 frame
Format settings, GOP             : M=1, N=50
Codec ID                         : avc1
Codec ID/Info                    : Advanced Video Coding
Duration                         : 3mn 31s
Bit rate mode                    : Variable
Bit rate                         : 3 729 Kbps
Maximum bit rate                 : 7 368 Kbps
Width                            : 2 048 pixels
Height                           : 1 152 pixels
Display aspect ratio             : 16:9
Frame rate mode                  : Constant
Frame rate                       : 25.000 fps
Color space                      : YUV
Chroma subsampling               : 4:2:0
Bit depth                        : 8 bits
Scan type                        : Progressive
Bits/(Pixel*Frame)               : 0.063
Stream size                      : 94.1 MiB (96%)
Tagged date                      : UTC 2012-04-15 00:08:41

Audio
ID                               : 2
Format                           : AAC
Format/Info                      : Advanced Audio Codec
Format profile                   : LC
Codec ID                         : 40
Duration                         : 3mn 31s
Bit rate mode                    : Variable
Bit rate                         : 151 Kbps
Maximum bit rate                 : 197 Kbps
Channel(s)                       : 2 channels
Channel positions                : Front: L R
Sampling rate                    : 44.1 KHz
Compression mode                 : Lossy
Stream size                      : 3.82 MiB (4%)
Title                            : IsoMedia File Produced by Google, 5-11-2011
Encoded date                     : UTC 2012-04-15 00:08:41
Tagged date                      : UTC 2012-04-15 00:08:41


Скриншоты:



Время раздачи: 24/7 по мере возможности...
[NNM-Club.ru]_Oksi - Lyubit' Za Dvoih.mp4.torrent
 Торрент: Золотая раздача  Зарегистрирован
 
Зарегистрируйтесь и скачайте торрент!
15,6 KB

Примагнититься
 Зарегистрирован:   17 Апр 2012 14:40:54
 Размер:   98 MB  (
 Рейтинг:    (Голосов: 8)
 Поблагодарили:   23
 Проверка:   Оформление проверено модератором 18 Апр 2012 00:33:57
Как cкачать  ·  Как раздать  ·  Правильно оформить  ·  Поднять ратио!  

_________________

Ну и конечно, данный материал выложен исключительно для ознакомления. После просмотра Вы обязаны удалить все файлы, отформатировать жесткий диск, разбить его молотком, облить кислотой и сжечь остатки в микроволновке.
Топик был перенесен из форума Музыкальные клипы в форум Архив Музыкального Видео

Причина переноса: Раздающего не было более месяца.
Robert Ingil
Показать сообщения:   
Начать новую тему   Ответить на тему    Торрент-трекер NNM-Club -> Архив торрентов -> Архив Музыкального Видео Часовой пояс: GMT + 3
Страница 1 из 1