Классический форум-трекер
canvas not supported
Нас вместе: 4 078 223

VA - Песни нашей Родины - Коллекция (6CD) (2008) [FLAC|Lossless]<Ретро, Военная песня>


 
 
RSS
Начать новую тему   Ответить на тему    Торрент-трекер NNM-Club -> Шансон, Авторская и Военная песня -> Авторская и Военная песня (Lossless)
Автор Сообщение
Николай Анатольевич ®
   
Почетный релизер
 
Стаж: 9 лет 8 мес.
Сообщений: 46540
Ratio: 10,32
Раздал: 7,411 TB
Поблагодарили: 2602447
100%
estonia.gif
VA - Песни нашей Родины - Коллекция (6CD) (2008) [FLAC|Lossless]<Ретро, Военная песня>
Год: 2008
Жанр: Ретро, военная песня

Кодек: FLAC
Битрейт: Lossless

«Люди! Покуда сердцa стучатся,— помните! Какою ценой завоевано счастье,— пожалуйста, помните! Песню свою отправляя в полет,— помните! О тех, кто уже никогда не споет,— помните! Детям своим расскажите о них, чтоб запомнили! Детям детей расскажите о них, чтобы тоже запомнили! Во все времена бессмертной Земли помните! К мерцающим звездам ведя корабли,— о погибших помните! Встречайте трепетную весну, люди Земли. Убейте войну, прокляните войну, люди Земли! Мечту пронесите через года и жизнью наполните!.. Но о тех, кто уже не придет никогда,— заклинаю,— помните!»

Р. Рождественский
Продолжительность: 00:54:08

Трек лист:
01. Хор и БСО ВР, дир. А.Гаук - Интернационал
02. Кам. хор Ленинградского Гос. и-та культуры им. Крупской - Варшавянка
03. Хор и БСО ВР, дир. А.Коваль - Смело, товарищи, в ногу
04. Хор ВР, дир. К.Птица - Вы жертвою пали
05. Кам. хор Ленинградского Гос. и-та культуры им. Крупской - Рабочая Марсельеза
06. Гос. Акад. русский хор, х. р. А.Свешников - Расстрел коммунаров
07. Ансамбль песни ВР, дир. В.Целиковский - По морям, по волнам
08. Хор русской песни ВР, х. р. А.Руднева - Как родная меня мать провожала
09. КАПП СА им. Александрова, дир. Б.Александров - Смело мы в бой пойдём
10. КАПП СА им. Александрова, дир. К.Виноградов - Гулял по Уралу Чапаев-герой
11. Хор ансамбля песни ВР, дир. С.Попов, сол. И.Савчук - Винтовочка
12. КАПП СА им. Александрова, дир. Б.Александров - Гей по дороге
13. КАПП СА им. Александрова, дир. Б.Александров - Полюшко-поле
14. Гос. Акад. русский хор, х. р. А.Свешников - Там, вдали, за рекой
15. КАПП СА им. Александрова, дир. Б.Александров - Песня о тачанке
16. Ансамбль песни ВР, дир. А.Андрусенко - Первая конная
17. Московский хор молодёжи и студентов - Песня о Щорсе
18. И.Кобзон, ЭСО ВР и ЦТ, х. р. Ю.Силантьев - Русское поле
Код:
Exact Audio Copy V0.99 prebeta 5 from 4. May 2009

Отчёт EAC об извлечении, выполненном 5. апреля 2010, 4:02

VA / Песни нашей Родины

Дисковод: PIONEER DVD-RW  DVR-115D   Adapter: 1  ID: 0

Режим чтения                 : Достоверность
Использование точного потока : Да
Отключение кэша аудио        : Да
Использование указателей C2  : Нет

Коррекция смещения при чтении                     : 48
Способность читать области Lead-in и Lead-out     : Нет
Заполнение пропущенных сэмплов тишиной            : Да
Удаление блоков с тишиной в начале и конце        : Нет
При вычислениях CRC использовались нулевые сэмплы : Да
Интерфейс                                         : Установленный внешний ASPI-интерфейс

Выходной формат          : Пользовательский кодировщик
Выбранный битрейт        : 128 kBit/s
Качество                 : Высокий
Добавление ID3-тэга      : Нет
Утилита сжатия           : C:\Program Files\FLAC\flac.exe
Дополнительные параметры : -8 -V %s

TOC извлечённого CD

     Трек |   Старт  | Длительность | Начальный сектор | Конечный сектор
    ---------------------------------------------------------------------
       1  |  0:00.00 |    3:56.23   |           0      |      17722
       2  |  3:56.23 |    1:53.67   |       17723      |      26264
       3  |  5:50.15 |    1:55.12   |       26265      |      34901
       4  |  7:45.27 |    4:09.08   |       34902      |      53584
       5  | 11:54.35 |    2:45.38   |       53585      |      65997
       6  | 14:39.73 |    4:08.17   |       65998      |      84614
       7  | 18:48.15 |    1:51.50   |       84615      |      92989
       8  | 20:39.65 |    2:10.47   |       92990      |     102786
       9  | 22:50.37 |    3:56.25   |      102787      |     120511
      10  | 26:46.62 |    2:27.13   |      120512      |     131549
      11  | 29:14.00 |    2:28.15   |      131550      |     142664
      12  | 31:42.15 |    2:50.39   |      142665      |     155453
      13  | 34:32.54 |    2:51.54   |      155454      |     168332
      14  | 37:24.33 |    4:58.46   |      168333      |     190728
      15  | 42:23.04 |    2:09.62   |      190729      |     200465
      16  | 44:32.66 |    3:53.04   |      200466      |     217944
      17  | 48:25.70 |    1:32.59   |      217945      |     224903
      18  | 49:58.54 |    4:09.31   |      224904      |     243609

Характеристики диапазона извлечения и сообщения об ошибках

Выбранный диапазон

     Имя файла I:\Песни нашей Родины (3 CD)\CD 1\VA - Песни нашей Родины.wav

     Пиковый уровень 100.0 %
     Качество диапазона 100.0 %
     CRC копии 169B19A2
     Копирование... OK

Ошибок не произошло

AccurateRip: сводка

Трек  1  нет в базе данных
Трек  2  нет в базе данных
Трек  3  нет в базе данных
Трек  4  нет в базе данных
Трек  5  нет в базе данных
Трек  6  нет в базе данных
Трек  7  нет в базе данных
Трек  8  нет в базе данных
Трек  9  нет в базе данных
Трек 10  нет в базе данных
Трек 11  нет в базе данных
Трек 12  нет в базе данных
Трек 13  нет в базе данных
Трек 14  нет в базе данных
Трек 15  нет в базе данных
Трек 16  нет в базе данных
Трек 17  нет в базе данных
Трек 18  нет в базе данных

Ни одного трека нет в базе AccurateRip

Конец отчёта
Код:
-----------------------

DON'T MODIFY THIS FILE

-----------------------

PERFORMER: auCDtect Task Manager, ver. 1.5.1RC2 build 1.5.1.3
Copyright (c) 2008-2010 y-soft. All rights reserved
http://y-soft.org

ANALYZER: auCDtect: CD records authenticity detector, version 0.8.2
Copyright (c) 2004 Oleg Berngardt. All rights reserved.
Copyright (c) 2004 Alexander Djourik. All rights reserved.

FILE: VA - Песни нашей Родины.flac
  Size: 270662227 Hash: 8FF6AD2CD77BAE99A527B7F1498E11DE Accuracy: -m0
  Conclusion: CDDA 100%
  Signature: E9966E8E1698AC4FAC93CED96285527830D9A5F3
Продолжительность: 01:07:48

Трек лист:
01. Хор ВРиТ - Молодая гвардия
02. Хор Пятницкого - Наша сила в деле правом
03. Марк Бернес - Тучи над городом встали
04. В.Левко, хор ВРиТ - Орлёнок
05. Е.Кибкало, хор ВРиТ - Всё выше
06. Иван Шмелев - Спят курганы тёмные
07. Е.Семенкина, А.Фролова - В путь-дорожку дальнюю
08. Московский молодежный хор - Комсомольская краснофлотская
09. Хор Пятницкого - Вдоль деревни
10. Леонид Утесов - У самовара
11. В.Бунчиков, хор ВРиТ - Песня о Родине
12. А.Прокошина, П.Казьмин - И кто его знает
13. А.Соколов, Е.Кибкало, хор ВРиТ - Москва майская
14. Хор ВРиТ - Марш энтузиастов
15. Н.Тимченко, Эстр. оркестр ВРиТ - Песня о Москве
16. П.Михайлов, джаз-оркестр Цфасмана - Утомлённое солнце
17. Леонид Утесов - Будьте здоровы
18. Вокальный квартет, джаз-оркестр Цфасмана - Неудачное свидание
19. К.Новикова - Песня Марианны
20. Краснознаменный ансамбль Александрова - Если завтра война
21. Георгий Виноградов - Катюша
Код:
Exact Audio Copy V0.99 prebeta 5 from 4. May 2009

Отчёт EAC об извлечении, выполненном 5. апреля 2010, 5:06

VA / Песни нашей Родины (2)

Дисковод: PIONEER DVD-RW  DVR-115D   Adapter: 1  ID: 0

Режим чтения                 : Достоверность
Использование точного потока : Да
Отключение кэша аудио        : Да
Использование указателей C2  : Нет

Коррекция смещения при чтении                     : 48
Способность читать области Lead-in и Lead-out     : Нет
Заполнение пропущенных сэмплов тишиной            : Да
Удаление блоков с тишиной в начале и конце        : Нет
При вычислениях CRC использовались нулевые сэмплы : Да
Интерфейс                                         : Установленный внешний ASPI-интерфейс

Выходной формат          : Пользовательский кодировщик
Выбранный битрейт        : 128 kBit/s
Качество                 : Высокий
Добавление ID3-тэга      : Нет
Утилита сжатия           : C:\Program Files\FLAC\flac.exe
Дополнительные параметры : -8 -V %s

TOC извлечённого CD

     Трек |   Старт  | Длительность | Начальный сектор | Конечный сектор
    ---------------------------------------------------------------------
       1  |  0:00.00 |    2:34.31   |           0      |      11580
       2  |  2:34.31 |    3:31.18   |       11581      |      27423
       3  |  6:05.49 |    2:03.14   |       27424      |      36662
       4  |  8:08.63 |    4:16.70   |       36663      |      55932
       5  | 12:25.58 |    3:01.59   |       55933      |      69566
       6  | 15:27.42 |    3:12.55   |       69567      |      84021
       7  | 18:40.22 |    2:38.02   |       84022      |      95873
       8  | 21:18.24 |    3:21.02   |       95874      |     110950
       9  | 24:39.26 |    2:02.62   |      110951      |     120162
      10  | 26:42.13 |    4:14.43   |      120163      |     139255
      11  | 30:56.56 |    4:45.68   |      139256      |     160698
      12  | 35:42.49 |    3:35.55   |      160699      |     176878
      13  | 39:18.29 |    3:36.36   |      176879      |     193114
      14  | 42:54.65 |    3:58.69   |      193115      |     211033
      15  | 46:53.59 |    3:14.44   |      211034      |     225627
      16  | 50:08.28 |    3:02.58   |      225628      |     239335
      17  | 53:11.11 |    2:35.27   |      239336      |     250987
      18  | 55:46.38 |    3:08.42   |      250988      |     265129
      19  | 58:55.05 |    2:48.18   |      265130      |     277747
      20  | 61:43.23 |    3:47.35   |      277748      |     294807
      21  | 65:30.58 |    2:17.33   |      294808      |     305115

Характеристики диапазона извлечения и сообщения об ошибках

Выбранный диапазон

     Имя файла I:\Песни нашей Родины (3 CD)\CD 2\VA - Песни нашей Родины (2).wav

     Пиковый уровень 86.6 %
     Качество диапазона 100.0 %
     CRC копии 62EF70AB
     Копирование... OK

Ошибок не произошло

AccurateRip: сводка

Трек  1  нет в базе данных
Трек  2  нет в базе данных
Трек  3  нет в базе данных
Трек  4  нет в базе данных
Трек  5  нет в базе данных
Трек  6  нет в базе данных
Трек  7  нет в базе данных
Трек  8  нет в базе данных
Трек  9  нет в базе данных
Трек 10  нет в базе данных
Трек 11  нет в базе данных
Трек 12  нет в базе данных
Трек 13  нет в базе данных
Трек 14  нет в базе данных
Трек 15  нет в базе данных
Трек 16  нет в базе данных
Трек 17  нет в базе данных
Трек 18  нет в базе данных
Трек 19  нет в базе данных
Трек 20  нет в базе данных
Трек 21  нет в базе данных

Ни одного трека нет в базе AccurateRip

Конец отчёта
Код:
-----------------------

DON'T MODIFY THIS FILE

-----------------------

PERFORMER: auCDtect Task Manager, ver. 1.5.1RC2 build 1.5.1.3
Copyright (c) 2008-2010 y-soft. All rights reserved
http://y-soft.org

ANALYZER: auCDtect: CD records authenticity detector, version 0.8.2
Copyright (c) 2004 Oleg Berngardt. All rights reserved.
Copyright (c) 2004 Alexander Djourik. All rights reserved.

FILE: VA - Песни нашей Родины (2).flac
  Size: 348305383 Hash: 13851647E080C4E765D08FCEA5B08C1E Accuracy: -m0
  Conclusion: CDDA 100%
  Signature: 10022AB2BB5EA4F0F0C6785D9FB8AC5278055134
Продолжительность: 01:06:41

Трек лист:
01. Краснознаменный ансамбль Александрова - Священная война
02. Краснознаменный ансамбль Александрова - Баллада о солдате
03. Марк Бернес - Враги сожгли родную хату
04. В.Власов и анс."Мелодия" - Моя любимая
05. И.Савчук, Краснознаменный ансамбль Александрова - Смуглянка
06. Леонид Утесов - Солдатский вальс
07. Марк Бернес - Тёмная ночь
08. Хор Пятницкого - Ой, туманы
09. Г.Виноградов, Краснознаменный ансамбль Александрова - В лесу прифронтовом
10. Георгий Абрамов - Шумел сурово брянский лес
11. В.Пучков, Краснознаменный ансамбль Александрова - На солнечной поляночке
12. Г.Панков, хор ВРиТ - Бухенвальдский набат
13. Леонид Утесов - Под звёздами Балканскими
14. В.Пучков, Краснознаменный ансамбль Александрова - Соловьи
15. Н.Тимченко - В землянке
16. Артур Эйзен - Дороги
17. Леонид Утесов - Дорога на Берлин
18. Марк Бернес - Журавли
Код:
Exact Audio Copy V0.99 prebeta 5 from 4. May 2009

Отчёт EAC об извлечении, выполненном 5. апреля 2010, 5:39

VA / Песни нашей Родины (3)

Дисковод: PIONEER DVD-RW  DVR-115D   Adapter: 1  ID: 0

Режим чтения                 : Достоверность
Использование точного потока : Да
Отключение кэша аудио        : Да
Использование указателей C2  : Нет

Коррекция смещения при чтении                     : 48
Способность читать области Lead-in и Lead-out     : Нет
Заполнение пропущенных сэмплов тишиной            : Да
Удаление блоков с тишиной в начале и конце        : Нет
При вычислениях CRC использовались нулевые сэмплы : Да
Интерфейс                                         : Установленный внешний ASPI-интерфейс

Выходной формат          : Пользовательский кодировщик
Выбранный битрейт        : 128 kBit/s
Качество                 : Высокий
Добавление ID3-тэга      : Нет
Утилита сжатия           : C:\Program Files\FLAC\flac.exe
Дополнительные параметры : -8 -V %s

TOC извлечённого CD

     Трек |   Старт  | Длительность | Начальный сектор | Конечный сектор
    ---------------------------------------------------------------------
       1  |  0:00.00 |    3:00.00   |           0      |      13499
       2  |  3:00.00 |    6:12.20   |       13500      |      41419
       3  |  9:12.20 |    3:37.50   |       41420      |      57744
       4  | 12:49.70 |    2:42.50   |       57745      |      69944
       5  | 15:32.45 |    2:55.59   |       69945      |      83128
       6  | 18:28.29 |    2:55.19   |       83129      |      96272
       7  | 21:23.48 |    3:31.20   |       96273      |     112117
       8  | 24:54.68 |    4:04.70   |      112118      |     130487
       9  | 28:59.63 |    3:20.33   |      130488      |     145520
      10  | 32:20.21 |    3:17.52   |      145521      |     160347
      11  | 35:37.73 |    3:46.30   |      160348      |     177327
      12  | 39:24.28 |    3:59.10   |      177328      |     195262
      13  | 43:23.38 |    2:58.22   |      195263      |     208634
      14  | 46:21.60 |    5:56.35   |      208635      |     235369
      15  | 52:18.20 |    3:05.60   |      235370      |     249304
      16  | 55:24.05 |    4:30.67   |      249305      |     269621
      17  | 59:54.72 |    2:37.44   |      269622      |     281440
      18  | 62:32.41 |    4:08.70   |      281441      |     300110

Характеристики диапазона извлечения и сообщения об ошибках

Выбранный диапазон

     Имя файла I:\Песни нашей Родины (3 CD)\CD 3\VA - Песни нашей Родины (3).wav

     Пиковый уровень 100.0 %
     Качество диапазона 100.0 %
     CRC копии 0C08A573
     Копирование... OK

Ошибок не произошло

AccurateRip: сводка

Трек  1  нет в базе данных
Трек  2  нет в базе данных
Трек  3  нет в базе данных
Трек  4  нет в базе данных
Трек  5  нет в базе данных
Трек  6  нет в базе данных
Трек  7  нет в базе данных
Трек  8  нет в базе данных
Трек  9  нет в базе данных
Трек 10  нет в базе данных
Трек 11  нет в базе данных
Трек 12  нет в базе данных
Трек 13  нет в базе данных
Трек 14  нет в базе данных
Трек 15  нет в базе данных
Трек 16  нет в базе данных
Трек 17  нет в базе данных
Трек 18  нет в базе данных

Ни одного трека нет в базе AccurateRip

Конец отчёта
Код:
-----------------------

DON'T MODIFY THIS FILE

-----------------------

PERFORMER: auCDtect Task Manager, ver. 1.5.1RC2 build 1.5.1.3
Copyright (c) 2008-2010 y-soft. All rights reserved
http://y-soft.org

ANALYZER: auCDtect: CD records authenticity detector, version 0.8.2
Copyright (c) 2004 Oleg Berngardt. All rights reserved.
Copyright (c) 2004 Alexander Djourik. All rights reserved.

FILE: VA - Песни нашей Родины (3).flac
  Size: 323882433 Hash: 5431B6DE04B321DEECEEDB1DA5BE3DA9 Accuracy: -m0
  Conclusion: CDDA 94%
  Signature: 8F4202DE75DDAA3B373E3E56F3B123C2CF45D97E
Продолжительность: 00:60:01

Трек лист:
01. Г.Панков, Московский хор, (хорм.Р.Перегудова), Оперно – симф. орк. В.Р. дир.А.Ковалев - Гимн международного союза молодежи
02. Московский хор, хорм. Р.Перегудова - Пройдут года
03. И.Бржевская, ЭСО ВР дир. Ю.Силантьев - Московские окна
04. И.Савчук, К.Герасимов, Большой хор В.Р. хр К.Птица, ЭСО В.Р дир. В.Кнушевицкий - «Комсомольская песня» из кф. «Добровольцы»
05. А.Усманов, В.Силиванов - Березы из кф «Первый день мира»
06. О.Воронец, муж. вок. Трио - Я - Земля (Марш космонавтов)
07. В.Власов инстр. анс. «Мелодия» - Юго-западный район
08. И.Кобзон, инстр. анс. - И на Марсе будут яблони цвести
09. Л.Лядова, женск. вок. квартет, инстр. анс. «Мелодия» -Москвичка
10. В.Трошин, инстр. анс. - Течет река Волга
11. И.Кобзон, инстр. анс. - Песня остается с человеком
12. И.Бржевская, инстр. анс. Хороши вечера на Оби
13. Э.Горобец, инстр. анс. - Голубые города
14. Э. Хиль, ЭСО Ленинградского радио дир. А.Владимирцев - Опять плывут куда-то корабли
15. М.Кристалинская - Вальс о вальсе
16. Э. Горобец, инстр. анс. - Я шагаю по Москве
17. Э. Хиль, Эстр. Орк. дир. В.Гамалия - Обнимая небо
18. Т.Миансарова, и анс. «3+2» - Скакалочка
19. Г.Отс, ЭСО ВР дир. Ю..Силантьев - Я люблю тебя жизнь
Код:
Exact Audio Copy V0.99 prebeta 5 from 4. May 2009

Отчёт EAC об извлечении, выполненном 8. июня 2011, 0:19

Various / Песни нашей Родины 4

Дисковод: ASUS    DRW-24B1LT   Adapter: 2  ID: 1

Режим чтения                 : Достоверность
Использование точного потока : Да
Отключение кэша аудио        : Да
Использование указателей C2  : Нет

Коррекция смещения при чтении                     : 6
Способность читать области Lead-in и Lead-out     : Нет
Заполнение пропущенных сэмплов тишиной            : Да
Удаление блоков с тишиной в начале и конце        : Нет
При вычислениях CRC использовались нулевые сэмплы : Да
Интерфейс                                         : Встроенный Win32-интерфейс для Win NT/2000

Выходной формат          : Пользовательский кодировщик
Выбранный битрейт        : 128 kBit/s
Качество                 : Высокий
Добавление ID3-тэга      : Да
Утилита сжатия           : C:\Program Files\FLAC\flac.exe
Дополнительные параметры : -8 -V %s

TOC извлечённого CD

     Трек |   Старт  | Длительность | Начальный сектор | Конечный сектор
    ---------------------------------------------------------------------
       1  |  0:00.00 |    2:32.67   |           0      |      11466
       2  |  2:32.67 |    2:52.09   |       11467      |      24375
       3  |  5:25.01 |    3:58.64   |       24376      |      42289
       4  |  9:23.65 |    3:21.71   |       42290      |      57435
       5  | 12:45.61 |    4:06.51   |       57436      |      75936
       6  | 16:52.37 |    3:59.07   |       75937      |      93868
       7  | 20:51.44 |    2:34.44   |       93869      |     105462
       8  | 23:26.13 |    2:51.18   |      105463      |     118305
       9  | 26:17.31 |    2:12.05   |      118306      |     128210
      10  | 28:29.36 |    4:17.53   |      128211      |     147538
      11  | 32:47.14 |    3:37.10   |      147539      |     163823
      12  | 36:24.24 |    3:11.47   |      163824      |     178195
      13  | 39:35.71 |    3:02.35   |      178196      |     191880
      14  | 42:38.31 |    3:40.56   |      191881      |     208436
      15  | 46:19.12 |    3:35.39   |      208437      |     224600
      16  | 49:54.51 |    2:51.58   |      224601      |     237483
      17  | 52:46.34 |    2:27.66   |      237484      |     248574
      18  | 55:14.25 |    1:24.66   |      248575      |     254940
      19  | 56:39.16 |    3:22.57   |      254941      |     270147

Характеристики диапазона извлечения и сообщения об ошибках

Выбранный диапазон

     Имя файла G:\Песни нашей Родины (3 CD)\CD 5\Various - Песни нашей Родины 4.wav

     Пиковый уровень 100.0 %
     Качество диапазона 100.0 %
     CRC теста 62C070F2
     CRC копии 62C070F2
     Копирование... OK

Ошибок не произошло

AccurateRip: сводка

Трек  1  нет в базе данных
Трек  2  нет в базе данных
Трек  3  нет в базе данных
Трек  4  нет в базе данных
Трек  5  нет в базе данных
Трек  6  нет в базе данных
Трек  7  нет в базе данных
Трек  8  нет в базе данных
Трек  9  нет в базе данных
Трек 10  нет в базе данных
Трек 11  нет в базе данных
Трек 12  нет в базе данных
Трек 13  нет в базе данных
Трек 14  нет в базе данных
Трек 15  нет в базе данных
Трек 16  нет в базе данных
Трек 17  нет в базе данных
Трек 18  нет в базе данных
Трек 19  нет в базе данных

Ни одного трека нет в базе AccurateRip

Конец отчёта
Код:
-----------------------

DON'T MODIFY THIS FILE

-----------------------

PERFORMER: auCDtect Task Manager, ver. 1.5.1RC2 build 1.5.1.3
Copyright (c) 2008-2010 y-soft. All rights reserved
http://y-soft.org

ANALYZER: auCDtect: CD records authenticity detector, version 0.8.2
Copyright (c) 2004 Oleg Berngardt. All rights reserved.
Copyright (c) 2004 Alexander Djourik. All rights reserved.

FILE: Various - Песни нашей Родины 4.flac
  Size: 320258100 Hash: 082BDBBA5D1DBDFF6714325604DC4C96 Accuracy: -m0
  Conclusion: CDDA 100%
  Signature: 6D1C0CADF5C6B659531D996ED456D2F0A3A4E721
Продолжительность: 01:08:49

Трек лист:
01. А.Досталь А.Куслеев, Краснознаменный им. Александрова ансамбля песни и пляски Советской Армии - Родина любимая моя
02. Р.Рождественский Л.Лещенко, инстр. анс. пу Г.Гараняна - За того парня
03. И.Шаферан О.Воронец, инстр. анс. - Ромашки спрятались - песня из кф «Моя улица»
04. Р.Рождественский М.Магомаев, орк кинематографии дир. К.Кримец - Благодарю тебя
05. Ф.Лаубе В.Макаров инстр. анс. пу Л.Пасечника - Раз, два ,три казачок
06. Л.Завальнюк Г. Великанова, инстр. анс - Жаль, что время ушло
07. Неизвестный - Клен ты мой опавший
08. ВИА «Пламя» - На дальней станции сойду
09. М.Агашин Л.Зыкина, (А.Шалаев. Н.Крылов – баяны) - Растет в Волгограде береза
10. А.Бабаджанян – орк. кинематографии дир. К.Кримец -Свадьба
11. Квартет «Гая» - Осока
12. В.Шаинский - инстр. анс - Зачем
13. А.Бабаджанян ВИО-66 дир. Ю.Саульский - Чертово колесо
14. ВИА «Цветы» - Звездочка моя ясная
15. ВИА «Самоцветы» - Там за облаками
16. О.Анофриев Е.Шаврина, инстр. анс. п.у В.Хорощанского - Какая песня без баяна
17. ВИА «Самоцветы» - Не повторяется такое никогда
18. Л.Афанасьев - ЭСО В.Р. дир. Ю.Силантьев - Гляжу в озера синие
19. А.Островский – Л. Ошанин Т.Миансарова, И.Кобзон, М.Ботов, Детский хор ЦДЖ хр С.Дунаевский - Пусть всегда будет солнце
Код:
Exact Audio Copy V0.99 prebeta 5 from 4. May 2009

Отчёт EAC об извлечении, выполненном 7. июня 2011, 23:38

VA / Песни нашей Родины 5

Дисковод: ASUS    DRW-24B1LT   Adapter: 2  ID: 1

Режим чтения                 : Достоверность
Использование точного потока : Да
Отключение кэша аудио        : Да
Использование указателей C2  : Нет

Коррекция смещения при чтении                     : 6
Способность читать области Lead-in и Lead-out     : Нет
Заполнение пропущенных сэмплов тишиной            : Да
Удаление блоков с тишиной в начале и конце        : Нет
При вычислениях CRC использовались нулевые сэмплы : Да
Интерфейс                                         : Встроенный Win32-интерфейс для Win NT/2000

Выходной формат          : Пользовательский кодировщик
Выбранный битрейт        : 128 kBit/s
Качество                 : Высокий
Добавление ID3-тэга      : Да
Утилита сжатия           : C:\Program Files\FLAC\flac.exe
Дополнительные параметры : -8 -V %s

TOC извлечённого CD

     Трек |   Старт  | Длительность | Начальный сектор | Конечный сектор
    ---------------------------------------------------------------------
       1  |  0:00.00 |    4:03.73   |           0      |      18297
       2  |  4:03.73 |    4:23.02   |       18298      |      38024
       3  |  8:27.00 |    2:57.49   |       38025      |      51348
       4  | 11:24.49 |    3:35.69   |       51349      |      67542
       5  | 15:00.43 |    2:11.54   |       67543      |      77421
       6  | 17:12.22 |    2:13.04   |       77422      |      87400
       7  | 19:25.26 |    3:52.11   |       87401      |     104811
       8  | 23:17.37 |    3:46.26   |      104812      |     121787
       9  | 27:03.63 |    4:53.71   |      121788      |     143833
      10  | 31:57.59 |    3:24.18   |      143834      |     159151
      11  | 35:22.02 |    2:51.51   |      159152      |     172027
      12  | 38:13.53 |    2:59.62   |      172028      |     185514
      13  | 41:13.40 |    4:11.57   |      185515      |     204396
      14  | 45:25.22 |    5:20.61   |      204397      |     228457
      15  | 50:46.08 |    3:31.09   |      228458      |     244291
      16  | 54:17.17 |    4:09.03   |      244292      |     262969
      17  | 58:26.20 |    3:30.34   |      262970      |     278753
      18  | 61:56.54 |    3:46.30   |      278754      |     295733
      19  | 65:43.09 |    3:06.06   |      295734      |     309689

Характеристики диапазона извлечения и сообщения об ошибках

Выбранный диапазон

     Имя файла G:\Песни нашей Родины (3 CD)\CD 5\VA - Песни нашей Родины 5.wav

     Пиковый уровень 97.9 %
     Качество диапазона 99.9 %
     CRC теста 5A9396C4
     CRC копии 5A9396C4
     Копирование... OK

Ошибок не произошло

AccurateRip: сводка

Трек  1  нет в базе данных
Трек  2  нет в базе данных
Трек  3  нет в базе данных
Трек  4  нет в базе данных
Трек  5  нет в базе данных
Трек  6  нет в базе данных
Трек  7  нет в базе данных
Трек  8  нет в базе данных
Трек  9  нет в базе данных
Трек 10  нет в базе данных
Трек 11  нет в базе данных
Трек 12  нет в базе данных
Трек 13  нет в базе данных
Трек 14  нет в базе данных
Трек 15  нет в базе данных
Трек 16  нет в базе данных
Трек 17  нет в базе данных
Трек 18  нет в базе данных
Трек 19  нет в базе данных

Ни одного трека нет в базе AccurateRip

Конец отчёта
Код:
-----------------------

DON'T MODIFY THIS FILE

-----------------------

PERFORMER: auCDtect Task Manager, ver. 1.5.1RC2 build 1.5.1.3
Copyright (c) 2008-2010 y-soft. All rights reserved
http://y-soft.org

ANALYZER: auCDtect: CD records authenticity detector, version 0.8.2
Copyright (c) 2004 Oleg Berngardt. All rights reserved.
Copyright (c) 2004 Alexander Djourik. All rights reserved.

FILE: VA - Песни нашей Родины 5.flac
  Size: 404203280 Hash: 852745587F1DBBFDF6F982A22066D59D Accuracy: -m0
  Conclusion: CDDA 100%
  Signature: E8D9485F2B0A69CE5C39A7AE84EF8EE9F6C67327
Продолжительность: 01:02:47

Трек лист:
01. Марк Бернес, Оркестр кинематографии - С чего начинается родина (песня из к/ф "Щит и меч")
02. Артисты театра "Современник" - Услышь меня, хорошая
03. Иосиф Кобзон, Московский хор молодежи п/у Б. Тевлина, Эстрадный оркестр п/у Г. Гараняна - В городском саду
04. Тамара Миансарова, Ансамбль "3+2" - Куда вы, куда
05. Эдуард Хиль, Эстрадный оркестр - Журавленок
06. Рашид Бейбутов, "Инструментальный ансамбль" - По горным дорогам
07. Марк Бернес, "Инструментальный ансамбль" - Течет река Волга
08. Муслим Магомаев, Государственный Московский хор, Виктор Соколов, Эстрадно-симфонический оркестр ВР и ЦТ п/у Ю. Силантьева - Голос земли
09. Валентина Толкунова, Леонид Серебренников - Уходит теплоход
10. Юрий Гуляев, Эстрадно-симфонический оркестр ВР и ЦТ п/у Ю. Силантьева - Орлята учатся летать
11. Алла Иошпе, Стахан Рахимов - Алеша
12. Муслим Магомаев, "Аккорд" вокальный квартет, Инструментальный ансамбль п/у А. Бабаджаняна - Лучший город земли
13. Р. Мкртчан, "Инструментальный ансамбль" - Лебединая верность
14. Иосиф Кобзон, Анс. скр. ГАБТа дир. Ю. Реентович - Как молоды мы были
15. ВИА "Музыка", Н. Воробьев - Три года ты мне снилась
16. А. Белов, Инструментальный ансамбль п/у А. Романченко - Черноглазая казачка
17. Екатерина Семенкина, Алена Фролова, Дуэт баянистов - Бежит река
18. Р.Мкртчан - Верни мне музыку
Код:
Exact Audio Copy V0.99 prebeta 5 from 4. May 2009

Отчёт EAC об извлечении, выполненном 7. июня 2011, 22:51

Various / Песни нашей Родины 6

Дисковод: ASUS    DRW-24B1LT   Adapter: 2  ID: 1

Режим чтения                 : Достоверность
Использование точного потока : Да
Отключение кэша аудио        : Да
Использование указателей C2  : Нет

Коррекция смещения при чтении                     : 6
Способность читать области Lead-in и Lead-out     : Нет
Заполнение пропущенных сэмплов тишиной            : Да
Удаление блоков с тишиной в начале и конце        : Нет
При вычислениях CRC использовались нулевые сэмплы : Да
Интерфейс                                         : Встроенный Win32-интерфейс для Win NT/2000

Выходной формат          : Пользовательский кодировщик
Выбранный битрейт        : 128 kBit/s
Качество                 : Высокий
Добавление ID3-тэга      : Да
Утилита сжатия           : C:\Program Files\FLAC\flac.exe
Дополнительные параметры : -8 -V %s

TOC извлечённого CD

     Трек |   Старт  | Длительность | Начальный сектор | Конечный сектор
    ---------------------------------------------------------------------
       1  |  0:01.00 |    2:29.64   |          75      |      11313
       2  |  2:30.64 |    3:02.63   |       11314      |      25026
       3  |  5:33.52 |    3:37.13   |       25027      |      41314
       4  |  9:10.65 |    3:21.11   |       41315      |      56400
       5  | 12:32.01 |    3:32.01   |       56401      |      72301
       6  | 16:04.02 |    2:30.16   |       72302      |      83567
       7  | 18:34.18 |    4:18.14   |       83568      |     102931
       8  | 22:52.32 |    3:39.12   |      102932      |     119368
       9  | 26:31.44 |    2:48.11   |      119369      |     131979
      10  | 29:19.55 |    2:40.19   |      131980      |     143998
      11  | 31:59.74 |    4:23.42   |      143999      |     163765
      12  | 36:23.41 |    2:36.28   |      163766      |     175493
      13  | 38:59.69 |    4:58.30   |      175494      |     197873
      14  | 43:58.24 |    4:57.43   |      197874      |     220191
      15  | 48:55.67 |    4:02.24   |      220192      |     238365
      16  | 52:58.16 |    3:03.54   |      238366      |     252144
      17  | 56:01.70 |    3:04.01   |      252145      |     265945
      18  | 59:05.71 |    3:41.36   |      265946      |     282556

Характеристики диапазона извлечения и сообщения об ошибках

Выбранный диапазон

     Имя файла G:\Песни нашей Родины (3 CD)\CD 6\Various - Песни нашей Родины 6.wav

     Пиковый уровень 100.0 %
     Качество диапазона 99.9 %
     CRC теста 1D1255D8
     CRC копии 1D1255D8
     Копирование... OK

Ошибок не произошло

AccurateRip: сводка

Трек  1  нет в базе данных
Трек  2  нет в базе данных
Трек  3  нет в базе данных
Трек  4  нет в базе данных
Трек  5  нет в базе данных
Трек  6  нет в базе данных
Трек  7  нет в базе данных
Трек  8  нет в базе данных
Трек  9  нет в базе данных
Трек 10  нет в базе данных
Трек 11  нет в базе данных
Трек 12  нет в базе данных
Трек 13  нет в базе данных
Трек 14  нет в базе данных
Трек 15  нет в базе данных
Трек 16  нет в базе данных
Трек 17  нет в базе данных
Трек 18  нет в базе данных

Ни одного трека нет в базе AccurateRip

Конец отчёта
Код:
-----------------------

DON'T MODIFY THIS FILE

-----------------------

PERFORMER: auCDtect Task Manager, ver. 1.5.1RC2 build 1.5.1.3
Copyright (c) 2008-2010 y-soft. All rights reserved
http://y-soft.org

ANALYZER: auCDtect: CD records authenticity detector, version 0.8.2
Copyright (c) 2004 Oleg Berngardt. All rights reserved.
Copyright (c) 2004 Alexander Djourik. All rights reserved.

FILE: Various - Песни нашей Родины 6.flac
  Size: 366644999 Hash: 6A1D6A3F3BC21E74E1BDA9AF17707045 Accuracy: -m0
  Conclusion: CDDA 100%
  Signature: 541E039B2C306EDBE5ACB94651E4F8CFD872579B
Время раздачи: 9.00 - 23.00 (по мере возможности...)
[NNM-Club.ru]_VA - Pesni nashey Rodinyi - Kollektsiya (6CD) (2008) [FLAC].torrent
 Торрент: Платиновая раздача  Зарегистрирован
 
Скачать


 Зарегистрирован:   20 Апр 2012 12:01:50
 Размер:   1,89 GB  (
 Рейтинг:   4,9 (Голосов: 41)
 Поблагодарили:   126
 Проверка:   Оформление проверено модератором 20 Апр 2012 12:09:04
Как cкачать  ·  Как раздать  ·  Правильно оформить  ·  Поднять ратио!  
Николай Анатольевич ®
   
Почетный релизер
 
Стаж: 9 лет 8 мес.
Сообщений: 46540
Ratio: 10,32
Раздал: 7,411 TB
Поблагодарили: 2602447
100%
estonia.gif
VA - Песни нашей Родины - Коллекция (6CD) (2008) [MP3|320 kbps]<Ретро, Военная песня>
SonAm
Стаж: 7 лет 5 мес.
Сообщений: 19
Ratio: 0,304
100%
Класс)))
don6
Uploader 300+
Стаж: 8 лет 11 мес.
Сообщений: 14
Ratio: 85,989
100%
ussr.gif
В третьем диске cue-файл не открывается. Это только у меня ?
Bruno
Стаж: 12 лет 11 мес.
Сообщений: 2
Ratio: 7,081
100%
Рабочий куй на 3-й диск
Показать сообщения:   
Начать новую тему   Ответить на тему    Торрент-трекер NNM-Club -> Шансон, Авторская и Военная песня -> Авторская и Военная песня (Lossless) Часовой пояс: GMT + 3
Страница 1 из 1