Классический форум-трекер
canvas not supported
Нас вместе: 4 075 085

Контракт (1985) [H.264] TVRip


 
 
RSS
Начать новую тему   Ответить на тему    Торрент-трекер NNM-Club -> Мультфильмы -> Отечественные Мультфильмы (HD*Rip/LQ, DVDRip, SATRip, VHSRip)
Автор Сообщение
vyctorius ®
 
Стаж: 8 лет 3 мес.
Сообщений: 1511
Ratio: 445,837
Раздал: 47,48 TB
Поблагодарили: 15471
100%
Откуда: чо берется?
pirates.png
Контракт (1985) [H.264] TVRip

Русское название: Контракт

Год выпуска: 1985
Производство: СССР (Союзмультфильм)
Жанр: Мультфильм, Фантастика, Короткометражка

Перевод: Оригинал
Субтитры: Отсутствуют

Режиссер: Владимир Тарасов
Сценарий: Виктор Славкин
Директор: Любовь Бутырина
Актеры: Александр Кайдановский, Василий Ливанов, Евгений Стеблов, Борис Иванов

Описание:
Фильм снят по мотивам одноименного фантастического рассказа Роберта Силверберга.
На необитаемую планету прибывает колонист, на которого тотчас нападают различные монстры. В самый критический момент колонист пользуется защитным силовым полем, предложенным торговым роботом QBF-41. Выясняется, что монстры являются торговой уловкой робота.



Продолжительность: 00:09:56
Качество видео: TVRip

Видеокодек: AVC/H.264
Битрейт видео: ~1985 kbps
Размер кадра: 544x400

Аудиокодек: AAC (Advanced Audio Codec), 2.0
Битрейт аудио: 122 kbps, 48,0 КГц
Kontrakt.1985.V.Tarasov.AAC.AVC.NoNaMe-club.ru.mp4

Формат : MPEG-4
Профиль формата : Base Media / Version 2
Идентификатор кодека : mp42
Размер файла : 150 Мбайт
Продолжительность : 9 м. 56 с.
Общий поток : 2109 Кбит/сек
Дата кодирования : UTC 2012-04-20 16:25:13
Дата пометки : UTC 2012-04-20 16:25:16
Программа кодирования : mp4creator 1.4.4

Видео
Идентификатор : 1
Формат : AVC
Формат/Информация : Advanced Video Codec
Профиль формата : Baseline@L1.3
Параметр CABAC формата : Нет
Параметр ReFrames формата : 2 кадры
Идентификатор кодека : avc1
Идентификатор кодека/Информация : Advanced Video Coding
Продолжительность : 9 м. 56 с.
Вид битрейта : Переменный
Битрейт : 1985 Кбит/сек
Ширина : 544 пикс.
Высота : 400 пикс.
Соотношение сторон : 4:3
Режим частоты кадров : Постоянный
Частота кадров : 30,000 кадр/сек
Цветовое пространство : YUV
Подвыборка цветности : 4:2:0
Битовая глубина : 8 бит
Тип развёртки : Прогрессивная
Бит/(Пиксели*Кадры) : 0.304
Размер потока : 141 Мбайт (94%)
Язык : English
Дата кодирования : UTC 2012-04-20 16:25:13
Дата пометки : UTC 2012-04-20 16:25:15

Аудио
Идентификатор : 2
Формат : AAC
Формат/Информация : Advanced Audio Codec
Профиль формата : LC
Идентификатор кодека : 40
Продолжительность : 9 м. 55 с.
Вид битрейта : Переменный
Битрейт : 122 Кбит/сек
Максимальный битрейт : 138 Кбит/сек
Канал(ы) : 2 канала(ов)
Расположение каналов : Front: L R
Частота : 48,0 КГц
Метод сжатия : С потерями
Размер потока : 8,64 Мбайт (6%)
Язык : English
Дата кодирования : UTC 2012-04-20 16:25:16
Дата пометки : UTC 2012-04-20 16:25:16
Скриншоты:




Время раздачи:
24/7 - практически круглосуточнo, с небольшими перерывами на перезагрузку системы.
Пожалуйста, если скачали, не уходите с раздачи, дайте другим скачать быстрее, чем качали Вы.

[NNM-Club.ru]_Kontrakt.1985.V.Tarasov.AAC.AVC.NoNaMe-club.ru.mp4.torrent
 Торрент: Платиновая раздача  Зарегистрирован
 
Скачать


Примагнититься
 Зарегистрирован:   22 Апр 2012 03:01:22
 Размер:   150 MB  (
 Рейтинг:   4,9 (Голосов: 30)
 Поблагодарили:   96
 Проверка:   Оформление проверено модератором 22 Апр 2012 03:29:50
Как cкачать  ·  Как раздать  ·  Правильно оформить  ·  Поднять ратио!  
pol723
Стаж: 8 лет 6 мес.
Сообщений: 117
Ratio: 6,425
100%
Откуда: Дебальцево
ukraine.gif
Спасибо.Рассказ один из любимых глянем мульт.
Показать сообщения:   
Начать новую тему   Ответить на тему    Торрент-трекер NNM-Club -> Мультфильмы -> Отечественные Мультфильмы (HD*Rip/LQ, DVDRip, SATRip, VHSRip) Часовой пояс: GMT + 3
Страница 1 из 1