Классический форум-трекер
canvas not supported
Нас вместе: 4 079 401

Ишь ты, масленица! (1985) DVDRip


 
 
RSS
Начать новую тему   Ответить на тему    Торрент-трекер NNM-Club -> Мультфильмы -> Отечественные Мультфильмы (HD*Rip/LQ, DVDRip, SATRip, VHSRip)
Автор Сообщение
Shustroff ®
Стаж: 8 лет 6 мес.
Сообщений: 202
Ratio: 67,34
Поблагодарили: 18777
100%
Откуда: Odessa
Ишь ты, масленица! (1985) DVDRip
Год выпуска: 1985
Жанр: Рисованная анимация

Описание:
По мотивам сказки О.Туманяна о бедняке, наказавшем богача за жадность



Режиссер: Роберт Саакянц

Продолжительность: 00:07:21

Видеокодек: DivX 5
Битрейт видео: ~25 fps, DivX Codec 6.8.5/6.9.1 ~2498 kbps avg, 0.24 bit/pixel
Размер кадра: 720x576 (1.25:1)
Качество видео: DVDRip
Аудиокодек: MP3, 1 ch
Битрейт аудио: 48 kHz, MPEG Layer 3, 1 ch, ~96.00 kbps avg
Формат : AVI
Формат/Информация : Audio Video Interleave
Размер файла : 137 Мбайт
Продолжительность : 7 м. 21 с.
Общий поток : 2601 Кбит/сек

Видео
Идентификатор : 0
Формат : MPEG-4 Visual
Параметр BVOP формата : 3
Параметр QPel формата : Нет
Параметр GMC формата : Без точки перехода
Параметр матрицы формата : Default (H.263)
Режим смешивания : Сжатый битовый поток
Идентификатор кодека : DX50
Идентификатор кодека/Подсказка : DivX 5
Продолжительность : 7 м. 21 с.
Битрейт : 2500 Кбит/сек
Ширина : 720 пикселей
Высота : 576 пикселей
Соотношение сторон : 5:4
Частота кадров : 25,000 кадров/сек
Стандарт вещания : PAL
Цветовое пространство : YUV
Субдискретизация насыщенности : 4:2:0
Битовая глубина : 8 бит
Тип развёртки : Прогрессивная
Метод сжатия : С потерями
Бит/(Пиксели*Кадры) : 0.241
Размер потока : 132 Мбайт (96%)
Библиотека кодирования : DivX 6.8.5 (UTC 2009-08-20)

Аудио
Идентификатор : 1
Формат : MPEG Audio
Версия формата : Version 1
Профиль формата : Layer 3
Идентификатор кодека : 55
Идентификатор кодека/Подсказка : MP3
Продолжительность : 7 м. 21 с.
Вид битрейта : Постоянный
Битрейт : 96,0 Кбит/сек
Каналы : 1 канал
Частота : 48,0 КГц
Метод сжатия : С потерями
Размер потока : 5,05 Мбайт (4%)
Выравнивание : Разделение по промежуткам
Продолжительность промежутка : 500 мс. (12,50 видеокадров)
Время предзагрузки промежутка : 750 мс.
Скриншоты:




Время раздачи: До первых сидов
[NNM-Club.ru]_Masleniza.torrent
 Торрент: Платиновая раздача  Зарегистрирован
 
Скачать


Примагнититься
 Зарегистрирован:   23 Апр 2012 21:29:33
 Размер:   137 MB  (
 Рейтинг:   5 (Голосов: 288)
 Поблагодарили:   1042
 Проверка:   Оформление проверено модератором 24 Апр 2012 10:52:44
Как cкачать  ·  Как раздать  ·  Правильно оформить  ·  Поднять ратио!  
Shustroff ®
Стаж: 8 лет 6 мес.
Сообщений: 202
Ratio: 67,34
Поблагодарили: 18777
100%
Откуда: Odessa
Роберт Саакянц:

Ух ты, говорящая рыба! (1983) DVDRip

Топор (1994) DVDRip

Кикос / Кикос (1979) DVDRip

В синем море, в белой пене... (1984) DVDRip

Кто расскажет небылицу? (1982) DVDRip

Три синих - синих озера малинового цвета (1981) DVDRip

_________________
Верю в смерть после жизни и в крем после бритья
Lamelle
Стаж: 8 лет 9 мес.
Сообщений: 160
Ratio: 22,242
Поблагодарили: 5639
100%
Откуда: ДНР
witch.png
тут Мультфильмы студии Арменфильм (1981-1985 г.) TVRip
XaHyMaH
Стаж: 8 лет 7 мес.
Сообщений: 7
Ratio: 2,477
100%
afghanistan.gif
Хозяин на Сракашвили чем-то похож... =)
muhammad1398
Стаж: 8 лет 9 мес.
Сообщений: 12
Ratio: 9,885
81.67%
russia.gif
спасибо!
Mumbo Yumbo
Стаж: 8 лет 8 мес.
Сообщений: 138
Ratio: 17,532
100%
Ахха :лол: , начало - натуральная пародия на современную действительность. "К нам пришел налоговый инспектор" :лол:
trel666
Стаж: 8 лет 1 мес.
Сообщений: 217
Ratio: 11,587
100%
ussr.gif
Шедевральный мульт!
zinaida1
Стаж: 5 лет
Сообщений: 204
Ratio: 10,85
100%
Мультик великолепный :)
rayden95
Стаж: 8 лет 8 мес.
Сообщений: 209
Ratio: 15,494
100%
Надеюсь в скором обозримом будущем "Налог на снег" не введут из этого мульта?, а то чувство какое то нехорошее, хотя я даже и не удивлюсь этому. Это как мусорная реформа "Налог на мусор" с каждого проживающего жителя квартиры.
macna
Стаж: 7 лет 7 мес.
Сообщений: 333
Ratio: 67,663
100%
ussr.gif
волк в турецкой феске, с губной гармошкой и мотивом, как бы намекает.
asker611
Стаж: 8 лет 7 мес.
Сообщений: 602
Ratio: 2,135
24.3%
russia.gif
Мульт прекрасный! Спасибо.
moros36717
Стаж: 4 года 9 мес.
Сообщений: 34
Ratio: 16,842
100%
Откуда: РСФСР
ussr.gif
Спасибо!

_________________
Делай, что должен и будь, что будет!
Jeff475
Стаж: 8 лет 8 мес.
Сообщений: 1023
Ratio: 3,624
Раздал: 4,927 TB
100%
Откуда: Харьков
ukraine.gif
А кота Кокоса нету?

_________________
Один человек имеет право смотреть на другого свысока,только когда помогает ему подняться.
Показать сообщения:   
Начать новую тему   Ответить на тему    Торрент-трекер NNM-Club -> Мультфильмы -> Отечественные Мультфильмы (HD*Rip/LQ, DVDRip, SATRip, VHSRip) Часовой пояс: GMT + 3
Страница 1 из 1