Классический форум-трекер
canvas not supported
Нас вместе: 4 093 584

Игра престолов / Game of Thrones [2 сезон,4 серия (10)] (2012) [1080i] HDTVRip [LostFilm]


 
 
RSS
Начать новую тему   Ответить на тему    Торрент-трекер NNM-Club -> Архив торрентов -> Архив Сериалов, а также Архив Старого многосерийного кино до 90-х
Автор Сообщение
GIU ®
Uploader 100+
Стаж: 9 лет 9 мес.
Сообщений: 3474
Ratio: 4669,905
Поблагодарили: 768925
100%
ussr.gif
Игра престолов / Game of Thrones [2 сезон,4 серия (10)] (2012) [1080i] HDTVRip
Русское название: Игра престолов
Оригинальное название: Game of Thrones
Год выпуска: 2012
Производство: США, HBO
Жанр: Фэнтези, Драма, Приключения
Вид субтитров: Отдельным файлом
Язык субтитров: Русский

Перевод: Многоголосый закадровый, профессиональный
Озвучка / Автор перевода: LostFilm



Режиссер: Алан Тейлор, Брайан Кирк, Даниэль Минахан
Актеры: Шон Бин, Николай Костер-Вальдау, Лина Хиди, Айэйн Глен, Питер Динклэйдж, Эмилия Кларк, Мишель Фэйрли, Эйден Гиллен, Кит Харингтон, Марк Эдди

Описание фильма:
К концу подходит время благоденствия, и лето, длившееся несколько десятилетий, угасает. Вокруг средоточия власти Семи королевств, Железного трона, зреет заговор, и в это непростое время король решает искать поддержки у друга юности Эддарда Старка. В мире, где все — от короля до наемника — рвутся к власти, плетут интриги и готовы вонзить нож в спину, есть место и благородству, состраданию и любви. Между тем, никто не замечает пробуждение тьмы из легенд далеко на Севере — и лишь Стена защищает живых к югу от нее.

Продолжительность: 00:54:48
Качество видео: HDTVRip 1080i

Формат: TS
Видеокодек: MPEG-2
Битрейт видео: ~12,6 Мбит/сек
Размер кадра: 1920 x 1080 (1.778) at 29.970 fps
Аудиокодек: AC3 2.0
Аудио #1: AC3 192 Кбит/сек (2ch), 48,0 КГц [Русский]
Аудио #2: AC3 384 Кбит/сек (2ch), 48,0 КГц [Английский]

Все раздачи сериала!
01.«The North Remembers» 1 апреля 2012 г
02.«The Night Lands» 8 апреля 2012 г
03.«What Is Dead May Never Die» 15 апреля 2012 г.
04.«Garden of Bones» 22 апреля 2012 г.
05.«The Ghost of Harrenhal» 29 апреля 2012 г.
06.«The Old Gods and the New» 6 мая 2012 г.
07. нет информации 13 мая 2012 г.
08. нет информации 20 мая 2012 г.
09.«Blackwater» 27 мая 2012 г.
10. нет информации 3 июня 2012 г.
Код:

Полное имя                       : F:\Игра престолов  Game of Thrones [02x04] (2012) HDTV 1080i  LostFilm\Game.of.Thrones.S02E04_1080i_HDTV_(LostFilm)\Game of Thrones S02E04 1080i HDTV DD5.1 MPEG2.ts
Формат                           : MPEG-TS
Размер файла                     : 5,16 Гбайт
Продолжительность                : 53 м.
Общий поток                      : 13,9 Мбит/сек
Максимальный общий битрейт       : 35,5 Мбит/сек

Видео
Идентификатор                    : 4113 (0x1011)
Идентификатор меню               : 1 (0x1)
Формат                           : MPEG Video
Версия формата                   : Version 2
Профиль формата                  : Main@High
Параметр BVOP формата            : Да
Параметр матрицы формата         : По умолчанию
Идентификатор кодека             : 2
Продолжительность                : 53 м.
Вид битрейта                     : Переменный
Битрейт                          : 12,6 Мбит/сек
Максимальный битрейт             : 18,0 Мбит/сек
Ширина                           : 1920 пикселей
Высота                           : 1080 пикселей
Соотношение сторон               : 16:9
Частота кадров                   : 29,970 кадров/сек
Цветовое пространство            : YUV
Субдискретизация насыщенности    : 4:2:0
Битовая глубина                  : 8 бит
Метод сжатия                     : С потерями
Бит/(Пиксели*Кадры)              : 0.203
Размер потока                    : 4,69 Гбайт (91%)

Аудио #1
Идентификатор                    : 4352 (0x1100)
Идентификатор меню               : 1 (0x1)
Формат                           : AC-3
Формат/Информация                : Audio Coding 3
Расширение режима                : CM (complete main)
Идентификатор кодека             : 129
Продолжительность                : 53 м.
Вид битрейта                     : Постоянный
Битрейт                          : 192 Кбит/сек
Каналы                           : 2 канала
Расположение каналов             : Front: L R
Частота                          : 48,0 КГц
Битовая глубина                  : 16 бит
Метод сжатия                     : С потерями
Размер потока                    : 73,0 Мбайт (1%)
Язык                             : Russian

Аудио #2
Идентификатор                    : 4353 (0x1101)
Идентификатор меню               : 1 (0x1)
Формат                           : AC-3
Формат/Информация                : Audio Coding 3
Расширение режима                : CM (complete main)
Идентификатор кодека             : 129
Продолжительность                : 53 м.
Вид битрейта                     : Постоянный
Битрейт                          : 384 Кбит/сек
Каналы                           : 2 канала
Расположение каналов             : Front: L R
Частота                          : 48,0 КГц
Битовая глубина                  : 16 бит
Метод сжатия                     : С потерями
Размер потока                    : 146 Мбайт (3%)
Язык                             : English

Текст #1
Идентификатор                    : 4113 (0x1011)-608-1
Идентификатор меню               : 1 (0x1)
Формат                           : EIA-608
Режим смешивания                 : A/53 / DTVCC Transport
Режим смешивания, доп. информаци : Muxed in Video #1
Продолжительность                : 53 м.
Размер потока                    : 0,00 байт (0%)

Текст #2
Идентификатор                    : 4113 (0x1011)-1
Идентификатор меню               : 1 (0x1)
Формат                           : EIA-708
Режим смешивания                 : A/53 / DTVCC Transport
Режим смешивания, доп. информаци : Muxed in Video #1
Продолжительность                : 53 м.
Размер потока                    : 0,00 байт (0%)

Скриншоты:



Время раздачи: 24/7 (до 10 скачавших)
[NNM-Club.ru]_Game.of.Thrones.S02E04_1080i_HDTV_(LostFilm).torrent
 Торрент: Платиновая раздача  Зарегистрирован
 
Скачать


 Зарегистрирован:   26 Апр 2012 01:19:21
 Размер:   5,16 GB  (
 Рейтинг:   3,4 (Голосов: 107)
 Поблагодарили:   98
 Проверка:   Оформление проверено модератором 26 Апр 2012 01:21:15
Как cкачать  ·  Как раздать  ·  Правильно оформить  ·  Поднять ратио!  
GIU ®
Uploader 100+
Стаж: 9 лет 9 мес.
Сообщений: 3474
Ratio: 4669,905
Поблагодарили: 768925
100%
ussr.gif
Игра престолов / Game of Thrones [2 сезон,1 серия (10)] (2012) [1080i] HDTVRip [LostFilm]
Игра престолов / Game of Thrones [2 сезон,2 серия (10)] (2012) [1080i] HDTVRip [LostFilm]
Игра престолов / Game of Thrones [2 сезон,3 серия (10)] (2012) [1080i] HDTVRip [LostFilm]
Игра престолов / Game of Thrones [2 сезон,5 серия (10)] (2012) [1080i] HDTVRip [LostFilm]
Игра престолов / Game of Thrones [2 сезон,6 серия (10)] (2012) [1080i] HDTVRip [LostFilm]
Игра престолов / Game of Thrones [2 сезон,7 серия (10)] (2012) [1080i] HDTVRip [LostFilm]
Игра престолов / Game of Thrones [2 сезон,8 серия (10)] (2012) [1080i] HDTVRip [LostFilm]
Игра престолов / Game of Thrones [2 сезон,9 серия (10)] (2012) [1080i] HDTVRip [LostFilm]
Игра престолов / Game of Thrones [2 сезон,10 серия (10)] (2012) [1080i] HDTVRip [LostFilm]
Игра престолов / Game of Thrones [2 сезон,1-10 серия (10)] (2012) HDTVRip [BBC Saint-Petersburg]

Вот сэмпл от 4 серии: http://multi-up.com/692522

_________________
Существует 2 бесконечности: Вселенная и Глупость. Впрочем, я не уверен насчет Вселенной.
©А.Эйнштейн
Топик был перенесен из форума Зарубежные сериалы в форум Архив Сериалов

Причина переноса: Раздающего не было месяц или более
Robert Ingil
Показать сообщения:   
Начать новую тему   Ответить на тему    Торрент-трекер NNM-Club -> Архив торрентов -> Архив Сериалов, а также Архив Старого многосерийного кино до 90-х Часовой пояс: GMT + 3
Страница 1 из 1