Классический форум-трекер
canvas not supported
Нас вместе: 4 093 475

Чернобыль: Последнее предупреждение / Chernobyl: The Final Warning (1991) VHSRip


 
 
RSS
Начать новую тему   Ответить на тему    Торрент-трекер NNM-Club -> Архив торрентов -> Архив Видео
Автор Сообщение
FedExe ®
Uploader 300+
Стаж: 9 лет 8 мес.
Сообщений: 9667
Ratio: 383,54
Поблагодарили: 929401
100%
Откуда: LoX - living off experien
Чернобыль: Последнее предупреждение / Chernobyl: The Final Warning (1991) VHSRip
Русское название: Чернобыль: Последнее предупреждение
Оригинальное название: Chernobyl: The Final Warning
Год выпуска: 1991
Жанр: Драма

Описание фильма:
Основанный на документальной книге, фильм рассказывает о международном сотрудничестве врачей, помогающих СССР в ликвидации последствий чернобыльской трагедии. Фигурируют исторические персонажи: Арман Хаммер, Михаил Горбачев.

Режиссер: Энтони Пейдж
Актеры: Джон Войт, Джейсон Робардс, Сэмми Дэвис, Аннетт Кросби, Иэн МакДайармид, Винсент Риотта, Стивен Хартли, Джим Ишида, Алекс Нортон, Дебора Уэстон, Игорь Ливанов, Юрий Петров, Алексей Краснопольский, Владимир Трошин, Вадим Ледогоров, Анна Варпаховская, Анатолий Немов, Юлия Живейнова, Геннадий Юхтин

Продолжительность: 01:34:47
Перевод: Многоголосый закадровый



Дата мировой премьеры: 22 апреля 1991

Видеокодек: Xvid
Битрейт видео: ~1180 Кбит/с
Размер кадра: 640x432
Качество видео: VHSRip
Аудиокодек: MP3
Битрейт аудио: 128 Кбит/с, 2 ch
General
Complete name : \\Diskstation\torrent\Chernobilj.Poslednee.preduprejdenie.1991.XviD.VHSRip.AVI
Format : AVI
Format/Info : Audio Video Interleave
File size : 891 MiB
Duration : 1h 34mn
Overall bit rate : 1 314 Kbps
Writing application : VirtualDubMod 1.5.10.2 (build 2540/release)
Writing library : VirtualDubMod build 2540/release

Video
ID : 0
Format : MPEG-4 Visual
Format profile : Advanced Simple@L5
Format settings, BVOP : 1
Format settings, QPel : No
Format settings, GMC : No warppoints
Format settings, Matrix : Default (H.263)
Codec ID : XVID
Codec ID/Hint : XviD
Duration : 1h 34mn
Bit rate : 1 176 Kbps
Width : 640 pixels
Height : 432 pixels
Display aspect ratio : 3:2
Frame rate : 25.000 fps
Color space : YUV
Chroma subsampling : 4:2:0
Bit depth : 8 bits
Scan type : Progressive
Compression mode : Lossy
Bits/(Pixel*Frame) : 0.170
Stream size : 798 MiB (90%)
Writing library : XviD 1.2.0.dev47 (UTC 2006-11-01)

Audio
ID : 1
Format : MPEG Audio
Format version : Version 1
Format profile : Layer 3
Codec ID : 55
Codec ID/Hint : MP3
Duration : 1h 34mn
Bit rate mode : Constant
Bit rate : 128 Kbps
Channel(s) : 2 channels
Sampling rate : 48.0 KHz
Compression mode : Lossy
Stream size : 86.8 MiB (10%)
Alignment : Aligned on interleaves
Interleave, duration : 40 ms (1.00 video frame)
Interleave, preload duration : 504 ms
Writing library : LAME3.97
Encoding settings : -m s -V 4 -q 2 -lowpass 17 -b 128

Скриншоты:

Время раздачи: 24/7 по мере возможности...
[NNM-Club.ru]_Chernobilj.Poslednee.preduprejdenie.1991.XviD.VHSRip.AVI.torrent
 Торрент: Платиновая раздача  Зарегистрирован
 
Скачать


Примагнититься
 Зарегистрирован:   26 Апр 2012 22:02:05
 Размер:   891 MB  (
 Рейтинг:   4,6 (Голосов: 35)
 Поблагодарили:   78
 Проверка:   Оформление проверено модератором 27 Апр 2012 20:45:14
Как cкачать  ·  Как раздать  ·  Правильно оформить  ·  Поднять ратио!  

_________________

Ну и конечно, данный материал выложен исключительно для ознакомления. После просмотра Вы обязаны удалить все файлы, отформатировать жесткий диск, разбить его молотком, облить кислотой и сжечь остатки в микроволновке.
Gainulina
Стаж: 10 лет
Сообщений: 290
Ratio: 0,799
29.73%
ukraine.gif
Что за ботва?
Топик был перенесен из форума Зарубежные Фильмы (HD*Rip/LQ, DVDRip, SATRip, VHSRip) в форум Архив Видео

Причина переноса: Раздающего не было месяц или более
MAG3131
Показать сообщения:   
Начать новую тему   Ответить на тему    Торрент-трекер NNM-Club -> Архив торрентов -> Архив Видео Часовой пояс: GMT + 3
Страница 1 из 1