Классический форум-трекер
canvas not supported
Нас вместе: 4 079 268

Интерны (серия 121-180 из 180) (2012) SATRip


Страницы:   Пред.  1, 2, 3, 4, 5, 6 
 
RSS
Начать новую тему   Ответить на тему    Торрент-трекер NNM-Club -> Отечественные сериалы -> Интерны
Автор Сообщение
kvazz ®
Стаж: 11 лет 11 мес.
Сообщений: 258
Ratio: 22,023
Поблагодарили: 12511
25.7%
ukraine.gif
Интерны (серия 121-180 из 180) (2012) SATRip
Русское название: Интерны 3 сезон
Год выпуска: 2011
Жанр: Комедия

Релиз группа: РиперАм

Релиз группа:



Режиссер: Максим Пежемский
Актеры: Иван Охлобыстин, Вадим Демчог, Светлана Камынина, Александр Ильин мл., Кристина Асмус, Илья Глинников, Дмитрий Шаракоис

Описание фильма:
Доктор Быков, которого играет знаменитый Иван Охлобыстин, получает на обучение четверых студентов. Этой новости он совсем не рад и начинает разыгрывать ребят со всем медицинским цинизмом.
Как поддчеркивают создатели сериала, сценаристами выступали медики, поэтому все розыгрыши и забавные ситуации взяты из реальной врачебной практики. Обошелся сериал и без традиционного для этого жанра закадрового смеха - серии и так достаточно смешные.

Продолжительность: серия ~ 00:25 минут
Качество видео: SATRip

Серии 121-180
Видеокодек: DivX, Xvid
Битрейт видео: ~1 500 Kbps
Размер кадра: 704х400
Аудиокодек: MP3, 2 ch
Битрейт аудио: 128 Kbps
General
Complete name : F:\Films\Интерны 3 сезон\Interny.121.SATRip.Xvid.2012.[Riper].avi
Format : AVI
Format/Info : Audio Video Interleave
File size : 271 MiB
Duration : 23mn 10s
Overall bit rate : 1 636 Kbps
Writing application : VirtualDubMod 1.5.10.2 (build 2540/release)
Writing library : VirtualDubMod build 2540/release

Video
ID : 0
Format : MPEG-4 Visual
Format profile : Advanced Simple@L5
Format settings, BVOP : 1
Format settings, QPel : No
Format settings, GMC : No warppoints
Format settings, Matrix : Default (H.263)
Muxing mode : Packed bitstream
Codec ID : XVID
Codec ID/Hint : XviD
Duration : 23mn 10s
Bit rate : 1 499 Kbps
Width : 704pixels
Height : 400 pixels
Display aspect ratio : 16:9
Frame rate : 25.000 fps
Color space : YUV
Chroma subsampling : 4:2:0
Bit depth : 8 bits
Scan type : Progressive
Compression mode : Lossy
Bits/(Pixel*Frame) : 0.208
Stream size : 248 MiB (92%)
Writing library : XviD 1.2.1 (UTC 2008-12-04)

Audio
ID : 1
Format : MPEG Audio
Format version : Version 1
Format profile : Layer 3
Mode : Joint stereo
Mode extension : MS Stereo
Codec ID : 55
Codec ID/Hint : MP3
Duration : 23mn 10s
Bit rate mode : Constant
Bit rate : 128 Kbps
Channel(s) : 2 channels
Sampling rate : 48.0 KHz
Compression mode : Lossy
Stream size : 21.2 MiB (8%)
Alignment : Aligned on interleaves
Interleave, duration : 40 ms (1.00 video frame)
Interleave, preload duration : 504 ms
26.09.2013 Обновлены серии до 180. Перекачайте пожалуйста торрент!!




Предыдущие серии:
Интерны (1-60 серии) (2010) SATRip
Интерны (61-120 из 120) (2011-2012) SATRip

Время раздачи: с 7:00 до 20:00
[NNM-Club.me]_Internyi 3 sezon.torrent
 Торрент: Платиновая раздача  Зарегистрирован
 
Скачать


 Зарегистрирован:   26 Сен 2013 03:38:59
 Размер:   17 GB  (
 Рейтинг:   4,8 (Голосов: 1043)
 Поблагодарили:   3739
 Проверка:   Оформление проверено модератором 26 Сен 2013 11:51:19
Как cкачать  ·  Как раздать  ·  Правильно оформить  ·  Поднять ратио!  
Leonid44
Стаж: 9 лет 6 мес.
Сообщений: 8
Ratio: 26,659
100%
Откуда: Калуга
russia.gif
В 169 серии в середине не хватает куска минуты на две.
Показать сообщения:   
Начать новую тему   Ответить на тему    Торрент-трекер NNM-Club -> Отечественные сериалы -> Интерны Часовой пояс: GMT + 3
Страницы:   Пред.  1, 2, 3, 4, 5, 6
Страница 6 из 6