Классический форум-трекер
canvas not supported
Нас вместе: 4 081 679

Семнадцатый трансатлантический (1972) DVDRip


 
 
RSS
Начать новую тему   Ответить на тему    Торрент-трекер NNM-Club -> Классика кино и Старые фильмы до 90-х -> Старые Отечественные Фильмы (HD*Rip/LQ, DVDRip, SATRip, VHSRip)
Автор Сообщение
ornellit ®
Стаж: 10 лет
Сообщений: 1754
Ratio: 200,434
Поблагодарили: 96833
100%
ukraine.gif
Семнадцатый трансатлантический (1972) DVDRip
Русское название: Семнадцатый трансатлантический
Год выпуска: 1972
Жанр: Военный, Драма
Выпущено: СССР, Киностудия им. Довженко

Описание фильма:
Июнь 1942 года. Из Исландии в Мурманск отправляются транспортные корабли с военными грузами - помощью союзников воюющей России. Охрана их поручена британским военно-морским силам. Но когда гитлеровские подводные лодки и авиация напали на караван, английские корабли, выполняя приказ своего командования, не вступили в бой, бросили транспорт без охраны в открытом море. В жестоком бою погибло 23 корабля с ценнейшими грузами.

Режиссер: Владимир Довгань
Актеры: Александр Лазарев ст., Борислав Брондуков, Ольга Матешко, Алексей Кожевников, Юрий Комаров

Продолжительность: 01:25:49



Видеокодек: DivX 5
Битрейт видео: ~2018 kb/s
Размер кадра: 720 x 352
Качество видео: DVDRip
Аудиокодек: AC3 2.0
Битрейт аудио: 256 kb/s
Общее
Полное имя : Семнадцатый трансатлантический.1972.DivX.DVDRip.[nnm-club.me].avi
Формат : AVI
Формат/Информация : Audio Video Interleave
Размер файла : 1,37 Гбайт
Продолжительность : 1 ч. 25 м.
Общий поток : 2284 Кбит/сек
Программа кодирования : VirtualDubModRus 1.5.10.2 (build 2542/release)
Библиотека кодирования : VirtualDubMod build 2542/release

Видео
Идентификатор : 0
Формат : MPEG-4 Visual
Параметр BVOP формата : 1
Параметр QPel формата : Нет
Параметр GMC формата : Без точки перехода
Параметр матрицы формата : Default (H.263)
Режим смешивания : Сжатый битовый поток
Идентификатор кодека : DX50
Идентификатор кодека/Подсказка : DivX 5
Продолжительность : 1 ч. 25 м.
Битрейт : 2018 Кбит/сек
Ширина : 720 пикселей
Высота : 352 пикселя
Соотношение сторон : 2,045
Частота кадров : 25,000 кадров/сек
Цветовое пространство : YUV
Субдискретизация насыщенности : 4:2:0
Битовая глубина : 8 бит
Тип развёртки : Прогрессивная
Метод сжатия : С потерями
Бит/(Пиксели*Кадры) : 0.318
Размер потока : 1,21 Гбайт (88%)
Библиотека кодирования : DivX 6.8.2 (UTC 2008-05-17)

Аудио
Идентификатор : 1
Формат : AC-3
Формат/Информация : Audio Coding 3
Расширение режима : CM (complete main)
Параметр Endianness формата : Big
Идентификатор кодека : 2000
Продолжительность : 1 ч. 25 м.
Вид битрейта : Постоянный
Битрейт : 256 Кбит/сек
Каналы : 2 канала
Расположение каналов : Front: L R
Частота : 48,0 КГц
Битовая глубина : 16 бит
Метод сжатия : С потерями
Размер потока : 157 Мбайт (11%)
Выравнивание : Разделение по промежуткам
Продолжительность промежутка : 40 мс. (1,00 видеокадр)
Время предзагрузки промежутка : 500 мс.
Скриншоты:


Время раздачи: С 13:00 до 21:00 (до 5 скачавших)
 Торрент: Золотая раздача  Зарегистрирован
 
Зарегистрируйтесь и скачайте торрент!
14 KB

Примагнититься
 Зарегистрирован:   30 Апр 2012 01:32:36
 Размер:   1,37 GB  (
 Рейтинг:   4,9 (Голосов: 20)
 Поблагодарили:   57
 Проверка:   Оформление проверено модератором 30 Апр 2012 04:01:24
Как cкачать  ·  Как раздать  ·  Правильно оформить  ·  Поднять ратио!  
klywl
Стаж: 9 лет 9 мес.
Сообщений: 1074
Ratio: 634,685
Поблагодарили: 16938
100%
Откуда: Самара
ussr.gif
Описание не верно. :нет: Сначала английские корабли охранения ушли и только затем немцы решились на атаку конвоя PQ-17. Причина ухода - по данным разведки немецкий линкор "Тирпиц" вышел на перехват конвоя.

_________________
SS-Killer
Стаж: 8 лет 11 мес.
Сообщений: 287
Ratio: 5,384
Раздал: 17,3 TB
100%
Откуда: Краснодар
russia.gif
Да все верно, гнусные "товарищи" из мелкобритании могут воевать с безоружными и туземцами, а в остальных случаях жидко хезаются...)))
Показать сообщения:   
Начать новую тему   Ответить на тему    Торрент-трекер NNM-Club -> Классика кино и Старые фильмы до 90-х -> Старые Отечественные Фильмы (HD*Rip/LQ, DVDRip, SATRip, VHSRip) Часовой пояс: GMT + 3
Страница 1 из 1