Классический форум-трекер
canvas not supported
Нас вместе: 4 093 498

Девочки сверху / Madchen, Madchen (2001) DVDRip


 
 
RSS
Начать новую тему   Ответить на тему    Торрент-трекер NNM-Club -> Зарубежное кино -> Зарубежные Фильмы (HD*Rip/LQ, DVDRip, SATRip, VHSRip)
Автор Сообщение
OlegKor ®
Стаж: 12 лет 3 мес.
Сообщений: 254
Ratio: 1,185
Поблагодарили: 1838
100%
Откуда: Киев
ukraine.gif
Девочки сверху / Mädchen, Mädchen (2001) DVDRip
Русское название: Девочки сверху
Оригинальное название: Mädchen, Mädchen
Год выпуска: 2001
Производство: Image Германия
Жанр: молодёжная комедия Image, мелодрама

Продолжительность: 01:23:22
Перевод: Многоголосый закадровый

Режиссёр: Деннис Ганзель

Актёры: Диана Амфт, Каролине Херфурт, Фелиситас Волль, Андреас Крист, Макс Римельт, Флориан Лукас, Барбара Бауэр, Хеннинг Баум, Арзу Базман, Торстен Феллер, Деннис Ганзель

Описание фильма:
Сюжет построен вокруг трёх неразлучных подружек: Инкен, Лены и Викки, которых больше всего в жизни огорчает, что в их 18 они ещё не разу не испытывали оргазма. Вроде и с парнями встречаются, а его всё нет и нет. Тогда они принимаются искать это заветное ощущение, о котором так много слышали, читали и смотрели документальных фильмов, везде: в ночных клубах, кафе-барах и… интернете. Всё это не может не привести к серии забавных происшествий порой романтичных, порой драматичных, а иногда просто пикантных…


Сэмпл: http://multi-up.com/765356

Видеокодек: DivX MPEG-4 Low-Motion
Битрейт видео: ~1024 kbps avg
Размер кадра: 512x288 (16:9)
Качество видео: DVDRip
Аудио: Image Русский MP3, 101 Kbps, 48.0 KHz, 2 channels — многоголосый закадровый
Скриншоты:
General
Count : 279
Count of stream of this kind : 1
Kind of stream : General
Kind of stream : General
Stream identifier : 0
Inform : AVI: 679 MiB, 1h 23mn
Count of video streams : 1
Count of audio streams : 1
Video_Format_List : MPEG-4 Visual
Video_Format_WithHint_List : MPEG-4 Visual (DivX 3 Low)
Codecs Video : DivX 3 Low
Audio_Format_List : MPEG Audio
Audio_Format_WithHint_List : MPEG Audio (MP3)
Audio codecs : MPEG-1 Audio layer 3
Complete name : /mnt/cmn/Torrents/Girls from above.avi
Folder name : /mnt/cmn/Torrents
File name : Girls from above
File extension : avi
Format : AVI
Format : AVI
Format/Info : Audio Video Interleave
Format/Extensions usually used : avi
Commercial name : AVI
Internet media type : video/vnd.avi
Interleaved : No
Codec : AVI
Codec : AVI
Codec/Info : Audio Video Interleave
Codec/Extensions usually used : avi
File size : 712263680
File size : 679 MiB
File size : 679 MiB
File size : 679 MiB
File size : 679 MiB
File size : 679.3 MiB
Duration : 5002640
Duration : 1h 23mn
Duration : 1h 23mn 22s 640ms
Duration : 1h 23mn
Duration : 01:23:22.640
Overall bit rate mode : VBR
Overall bit rate mode : Variable
Overall bit rate : 1139020
Overall bit rate : 1 139 Kbps
Stream size : 8078744
Stream size : 7.70 MiB (1%)
Stream size : 8 MiB
Stream size : 7.7 MiB
Stream size : 7.70 MiB
Stream size : 7.704 MiB
Stream size : 7.70 MiB (1%)
Proportion of this stream : 0.01134
File last modification date : UTC 2010-06-08 02:02:13
File last modification date (local) : 2010-06-08 06:02:13
Writing application : Nandub v1.0rc2
Writing library : Nandub build 1853/release
Writing library : Nandub build 1853/release

Video
Count : 248
Count of stream of this kind : 1
Kind of stream : Video
Kind of stream : Video
Stream identifier : 0
Inform : 1 025 Kbps, 512*288 (16:9), at 25.000 fps, MPEG-4 Visual (DivX 3 Low)
ID : 0
ID : 0
Format : MPEG-4 Visual
Commercial name : MPEG-4 Visual
Internet media type : video/MP4V-ES
Codec ID : DIV3
Codec ID/Hint : DivX 3 Low
Codec ID/Url : http://www.divx.com
Codec : DIV3
Codec : DivX 3 Low
Codec/Family : MPEG-4V
Codec/Url : http://www.divx.com
Codec/CC : DIV3
Duration : 5002640
Duration : 1h 23mn
Duration : 1h 23mn 22s 640ms
Duration : 1h 23mn
Duration : 01:23:22.640
Bit rate : 1024782
Bit rate : 1 025 Kbps
Width : 512
Width : 512 pixels
Height : 288
Height : 288 pixels
Pixel aspect ratio : 1.000
Display aspect ratio : 1.778
Display aspect ratio : 16:9
Frame rate : 25.000
Frame rate : 25.000 fps
Frame count : 125066
Resolution : 8
Resolution : 8 bits
Color space : YUV
Chroma subsampling : 4:2:0
Bit depth : 8
Bit depth : 8 bits
Compression mode : Lossy
Compression mode : Lossy
Bits/(Pixel*Frame) : 0.278
Delay : 0
Delay : 00:00:00.000
Stream size : 640827224
Stream size : 611 MiB (90%)
Stream size : 611 MiB
Stream size : 611 MiB
Stream size : 611 MiB
Stream size : 611.1 MiB
Stream size : 611 MiB (90%)
Proportion of this stream : 0.89971

Audio
Count : 217
Count of stream of this kind : 1
Kind of stream : Audio
Kind of stream : Audio
Stream identifier : 0
Inform : 101 Kbps, 48.0 KHz, 2 channels, MPEG Audio (MP3) (Version 1) (Layer 3) (Joint stereo / MS Stereo)
ID : 1
ID : 1
Format : MPEG Audio
Commercial name : MPEG Audio
Format version : Version 1
Format profile : Layer 3
Format settings : Joint stereo / MS Stereo
Mode : Joint stereo
Mode extension : MS Stereo
Internet media type : audio/mpeg
Codec ID : 55
Codec ID/Hint : MP3
Codec ID/Url : http://www.iis.fraunhofer.de/amm/index.html
Codec : MPA1L3
Codec : MPEG-1 Audio layer 3
Codec/Family : MPEG-1
Codec/Info : MPEG-1 or 2 layer 3
Codec/Url : http://www.iis.fraunhofer.de/amm/index.html
Codec/CC : 55
Codec profile : Joint stereo
Duration : 5002632
Duration : 1h 23mn
Duration : 1h 23mn 22s 632ms
Duration : 1h 23mn
Duration : 01:23:22.632
Bit rate mode : VBR
Bit rate mode : Variable
Bit rate : 101431
Bit rate : 101 Kbps
Channel(s) : 2
Channel(s) : 2 channels
Sampling rate : 48000
Sampling rate : 48.0 KHz
Samples count : 245834496
Frame count : 213398
Compression mode : Lossy
Compression mode : Lossy
Delay : 21
Delay : 21ms
Delay : 21ms
Delay : 21ms
Delay : 00:00:00.021
Delay, origin : Stream
Delay, origin : Raw stream
Delay relative to video : 21
Delay relative to video : 21ms
Delay relative to video : 21ms
Delay relative to video : 21ms
Delay relative to video : 00:00:00.021
Video0 delay : 21
Video0 delay : 21ms
Video0 delay : 21ms
Video0 delay : 21ms
Video0 delay : 00:00:00.021
Stream size : 63357712
Stream size : 60.4 MiB (9%)
Stream size : 60 MiB
Stream size : 60 MiB
Stream size : 60.4 MiB
Stream size : 60.42 MiB
Stream size : 60.4 MiB (9%)
Proportion of this stream : 0.08895
Alignment : Aligned
Alignment : Aligned on interleaves
Interleave, duration : 0.60
Interleave, duration : 24
Interleave, duration : 24 ms (0.60 video frame)
Interleave, preload duration : 262
Interleave, preload duration : 262 ms
На трекере есть ещё одна раздача этого фильма (в другом качестве). А также продолжение «Девочки снова сверху» (ссылка 2)
Время раздачи: 24/7
Реставрация от: Robert Ingil
Girls from above.avi.torrent
 Торрент: Платиновая раздача  Зарегистрирован
 
Скачать


 Зарегистрирован:   22 Ноя 2007 13:20:03
 Размер:   679 MB  (
 Рейтинг:   4,7 (Голосов: 29)
 Поблагодарили:   68
 Проверка:   Оформление проверено модератором 22 Ноя 2007 13:37:40
Как cкачать  ·  Как раздать  ·  Правильно оформить  ·  Поднять ратио!  
OlegKor ®
Стаж: 12 лет 3 мес.
Сообщений: 254
Ratio: 1,185
Поблагодарили: 1838
100%
Откуда: Киев
ukraine.gif
Скачивание должно быть получше.
Раздаю с двух серверов ...
По идее ... СИД должен быть постоянно.
Gespenst
Стаж: 12 лет 7 мес.
Сообщений: 55
Ratio: 3,212
Поблагодарили: 44
3.75%
russia.gif
Вернитесь на раздачу плиз
nomis
Стаж: 13 лет
Сообщений: 133
Ratio: 5,745
Поблагодарили: 431
10.91%
прикольный фильм
SVETin
Стаж: 11 лет 11 мес.
Сообщений: 8
Ratio: 2,378
100%
russia.gif
классный фильм! всем качать..

_________________
Доброта спасет мир!
Vitaliy69
 
Стаж: 12 лет
Сообщений: 296
Ratio: 68,565
Раздал: 53,15 TB
Поблагодарили: 3691
100%
Откуда: Тверь
russia.gif
Что-то медленно качает. :(

_________________


MSI Z97 Gaming 7, Intel Core i7-4790K, AMD R9 290X, 16 Gb RAM, SSD Plextor M6 PRO
натали15
Стаж: 10 лет
Сообщений: 4
Ratio: 0,669
100%
почему нет скачки - ведь доступно 2 сида
vladhalflife
Стаж: 9 лет 9 мес.
Сообщений: 32
Ratio: 2,037
14.13%
скорость 100 кб/сек :злость:
newdisk
Стаж: 9 лет 7 мес.
Сообщений: 83
Ratio: 1,689
100%
Прикольный молодежный фильм!
Robert Ingil
Реставратор Клуба
Стаж: 13 лет 3 мес.
Сообщений: 3907
Ratio: 77,455
Раздал: 58,49 TB
Поблагодарили: 4948
100%
Откуда: St.-Petersburg, Russia
russia.gif
Показать сообщения:   
Начать новую тему   Ответить на тему    Торрент-трекер NNM-Club -> Зарубежное кино -> Зарубежные Фильмы (HD*Rip/LQ, DVDRip, SATRip, VHSRip) Часовой пояс: GMT + 3
Страница 1 из 1