Классический форум-трекер
canvas not supported
Нас вместе: 4 090 263

Тор: Легенда викингов / Legends of Valhalla: Thor (2011) DVDRip


 
 
RSS
Начать новую тему   Ответить на тему    Торрент-трекер NNM-Club -> Мультфильмы -> Зарубежные Мультфильмы (HD*Rip/LQ, DVDRip, SATRip, VHSRip)
Автор Сообщение
svlesin ®
Модератор Документалистики/TV
RG Releasers
Релизер 25000+ Uploader 300+
 
Стаж: 10 лет 1 мес.
Сообщений: 33800
Ratio: 1808,032
Поблагодарили: 3252060
100%
russia.gif
Тор: Легенда викингов / Legends of Valhalla: Thor (2011) DVDRip
Русское название: Тор: Легенда викингов
Оригинальное название: Legends of Valhalla: Thor
Год выпуска: 2011
Производство: США / CAOZ hf., Magma Films Ltd. (I), Ulysses
Жанр: Комедия, Приключения, Семейный, Мультфильм

Дата мировой премьеры: 14 октября 2011
Дата российской премьеры: 22 марта 2012, «Централ Партнершип»

Режиссер: Оускар Йоунассон, Тоби Генкель, Гуннар Карлссон

Продюсер: Хильмар Сигурдссон, Арнар Ториссон, Эмели Кристианс

Актеры: Джастин Грегг, Пол Тайлак, Николя Кохлан, Лиз Ллойд, Алан Стэнфорд, Эммет Скэнлэн, Дж. Дрю Лукас, Мэри Мюррэй, Леса Турман, Гари Хецлер

Описание фильма:
Самоуверенный подросток, в арсенале которого находятся магическое оружие присоединяется к борьбе против злой королевы и ее армии гигантов.

Продолжительность: 01:19:36

Перевод: Дублированный
Субтитры: Отсутствуют

Качество видео: DVDRip
Видеокодек: Xvid
Битрейт видео: ~1997 Kbit/s
Размер кадра: 720 x 304
Аудиокодек: AC3 6.0 (Front: L C R, Side: L R, LFE)
Битрейт аудио: 448 Kbit/s
Релиз группа:
Формат : AVI
Формат/Информация : Audio Video Interleave
Размер файла : 1,36 Гбайт
Продолжительность : 1 ч. 19 м.
Общий поток : 2455 Кбит/сек
Название фильма : Tor.legenda.vikingov.2011.D.DVDRip
Режиссёр : ELEKTRO-Am
Программа кодирования : VirtualDubMod 1.5.10.3 | www.virtualdub-fr.org || (build 2550/release)
Правообладатель : ELEKTRi4KA

Видео
Идентификатор : 0
Формат : MPEG-4 Visual
Профиль формата : Advanced Simple@L5
Параметр BVOP формата : 1
Параметр QPel формата : Нет
Параметр GMC формата : Без точки перехода
Параметр матрицы формата : Выборочная
Идентификатор кодека : XVID
Идентификатор кодека/Подсказка : XviD
Продолжительность : 1 ч. 19 м.
Битрейт : 1997 Кбит/сек
Ширина : 720 пикселей
Высота : 304 пикселя
Соотношение сторон : 2,35:1
Частота кадров : 25,000 кадров/сек
Цветовое пространство : YUV
Субдискретизация насыщенности : 4:2:0
Битовая глубина : 8 бит
Тип развёртки : Прогрессивная
Метод сжатия : С потерями
Бит/(Пиксели*Кадры) : 0.365
Размер потока : 1,11 Гбайт (81%)
Библиотека кодирования : XviD 1.2.1 (UTC 2008-12-04)

Аудио
Идентификатор : 1
Формат : AC-3
Формат/Информация : Audio Coding 3
Расширение режима : CM (complete main)
Идентификатор кодека : 2000
Продолжительность : 1 ч. 19 м.
Вид битрейта : Постоянный
Битрейт : 448 Кбит/сек
Каналы : 6 каналов
Расположение каналов : Front: L C R, Side: L R, LFE
Частота : 48,0 КГц
Битовая глубина : 16 бит
Метод сжатия : С потерями
Размер потока : 255 Мбайт (18%)
Выравнивание : Разделение по промежуткам
Продолжительность промежутка : 40 мс. (1,00 видеокадр)
Время предзагрузки промежутка : 500 мс.
Скриншоты:

Время раздачи: 24/7. До первых 5 скачавших.
[NNM-Club.ru]_Tor. Legenda vikingov - Legends of Valhalla. Thor (2011).avi.torrent
 Торрент: Золотая раздача  Зарегистрирован
 
Зарегистрируйтесь и скачайте торрент!
13,9 KB

 Зарегистрирован:   01 Май 2012 11:11:56
 Размер:   1,36 GB  (
 Рейтинг:   4,7 (Голосов: 84)
 Поблагодарили:   399
 Проверка:   Оформление проверено модератором 01 Май 2012 11:57:04
Как cкачать  ·  Как раздать  ·  Правильно оформить  ·  Поднять ратио!  

_________________
Уважаемые пользователи Клуба! От меня релизов больше не будет. Может быть, буду поддерживать «Обновляемые раздачи». Спасибо всем, кто благодарил меня и говорил/нажимал «Спасибо»!
Loading...
cccp39
Стаж: 8 лет 4 мес.
Сообщений: 672
Ratio: 479,82
100%
russia.gif
Глянем на досуге
BigAssPig
Стаж: 7 лет 10 мес.
Сообщений: 208
Ratio: 27,902
Поблагодарили: 5
100%
Откуда: Прекрасное Глубоко
wild_hogs.gif
Спасибо! Отличный мульт :)
lolplzdie
Стаж: 8 лет 3 мес.
Сообщений: 48
Ratio: 16,272
100%
russia.gif
Глянем
laoshe2
Uploader 100+
Стаж: 8 лет 4 мес.
Сообщений: 627
Ratio: 340,086
100%
russia.gif
Ну очень :да: задушевный мультик :приветствую:
bigmanzjk
Стаж: 8 лет 9 мес.
Сообщений: 11
Ratio: 1,512
100%
ukraine.gif
Спасибо. Оценим.
art-61
Стаж: 8 лет 7 мес.
Сообщений: 1100
Ratio: 134,829
Поблагодарили: 141441
100%
Откуда: Санкт-Петербург
russia.gif
Все раздачи Тор: Легенда викингов на NNM-CLUB

_________________
В этом безумном мире возможно всё!
Unlimited01
Стаж: 11 лет 5 мес.
Сообщений: 401
Ratio: 21,863
26.61%
russia.gif
Так себе мультик :спит:
Vita70
Стаж: 8 лет 3 мес.
Сообщений: 1671
Ratio: 145,912
100%
russia.gif
Пойдёт:respekt: ! Спасибо !
Ljudmila7777
Стаж: 9 лет 8 мес.
Сообщений: 13
Ratio: 0,853
4.1%
germany.gif
Спасибо детям понравилось!
Показать сообщения:   
Начать новую тему   Ответить на тему    Торрент-трекер NNM-Club -> Мультфильмы -> Зарубежные Мультфильмы (HD*Rip/LQ, DVDRip, SATRip, VHSRip) Часовой пояс: GMT + 3
Страница 1 из 1