Классический форум-трекер
canvas not supported
Нас вместе: 4 094 174

Остаться в живых / Lost, 6 сезон Для Blackberry Playbook [1024x600] и других планшетов


 
 
RSS
Начать новую тему   Ответить на тему    Торрент-трекер NNM-Club -> Архив торрентов -> Архив КПК и Мобильных устройств
Автор Сообщение
Wildhamster ®
Стаж: 9 лет 5 мес.
Сообщений: 36
Ratio: 4,88
Поблагодарили: 460
100%
Остаться в живых / Lost, 6 сезон Для Blackberry Playbook
Русское название: Остаться в живых
Оригинальное название: Lost, 6 сезон
Год выпуска: 2010
Жанр: Приключения, Триллер

Описание фильма:
«Остаться в живых» — культовый американский телесериал, лауреат премий «Эмми» и «Золотой глобус». В центре сюжета — история пассажиров рейса 815 компании Oceanic Airlines, летевших из Сиднея, Австралия в Лос-Анджелес, США, потерпевших катастрофу и оказавшихся на полном загадок и тайн тропическом острове где-то в Океании. В финальном сезоне продюсеры обещают раскрыть такие давно тянущиеся загадки, как дымный монстр, четырёхпалая статуя Тауэрт и личности скелетов из серии первого сезона «Восток — дело тонкое». Мэттью Фокс заявил в интервью, что в финальном сезоне персонажи Джек Шепард и Джон Локк «столкнутся лицом к лицу».

Режиссер: Джек Бендер, Стивен Уильямс
Актеры: Нэвин Эндрюс, Мэттью Фокс, Хорхе Гарсиа, Джош Холлоуэй, Дэниэл Дэй Ким, Юн-жин Ким, Эванджелин Лилли, Терри О`Куинн, Эмили де Рэйвин

Продолжительность: 0-16х44, 17и18 серии одним файлом 01:45:38
Перевод: Многоголосый закадровый



Видеокодек: MPEG-4 AVC/H.264
Битрейт видео: ~2242 Кбит/сек
Размер кадра: 1024х600
Качество видео: WEB-DLRip
Аудиокодек: MP3
Битрейт аудио: 128 Кбит/сек
Видео
Идентификатор : 1
Формат : AVC
Формат/Информация : Advanced Video Codec
Профиль формата : Baseline@L3.1
Параметр CABAC формата : Нет
Параметр ReFrames формата : 1 кадр
Параметр GOP формата : M=1, N=12
Идентификатор кодека : avc1
Идентификатор кодека/Информация : Advanced Video Coding
Продолжительность : 44 м.
Вид битрейта : Переменный
Битрейт : 2242 Кбит/сек
Максимальный битрейт : 2700 Кбит/сек
Ширина : 1024 пикселя
Высота : 600 пикселей
Соотношение сторон : 16:9
Режим частоты кадров : Постоянный
Частота кадров : 29,970 кадров/сек
Частота кадров в оригинале : 24,000 кадра/сек
Цветовое пространство : YUV
Субдискретизация насыщенности : 4:2:0
Битовая глубина : 8 бит
Тип развёртки : Прогрессивная
Бит/(Пиксели*Кадры) : 0.122
Размер потока : 707 Мбайт (94%)
Язык : English
Дата кодирования : UTC 2012-05-01 13:59:11
Дата пометки : UTC 2012-05-01 13:59:11

Аудио
Идентификатор : 2
Формат : AAC
Формат/Информация : Advanced Audio Codec
Профиль формата : LC
Идентификатор кодека : 40
Продолжительность : 44 м.
Вид битрейта : Переменный
Битрейт : 128 Кбит/сек
Каналы : 2 канала
Расположение каналов : Front: L R
Частота : 44,1 КГц
Метод сжатия : С потерями
Размер потока : 40,4 Мбайт (5%)
Язык : Russian
Дата кодирования : UTC 2012-05-01 13:59:11
Дата пометки : UTC 2012-05-01 13:59:11
Скриншоты:


Время раздачи: до 10 скачавших
[NNM-Club.ru]_Lost 6s.torrent
 Торрент: Золотая раздача  Зарегистрирован
 
Зарегистрируйтесь и скачайте торрент!
36,6 KB

 Зарегистрирован:   02 Май 2012 10:20:24
 Размер:   14,2 GB  (
 Рейтинг:    (Голосов: 7)
 Поблагодарили:   10
 Проверка:   Оформление проверено модератором 02 Май 2012 17:13:44
Как cкачать  ·  Как раздать  ·  Правильно оформить  ·  Поднять ратио!  
Топик был перенесен из форума Мобильное Видео в форум Архив КПК и Мобильных устройств


powerv5000
Показать сообщения:   
Начать новую тему   Ответить на тему    Торрент-трекер NNM-Club -> Архив торрентов -> Архив КПК и Мобильных устройств Часовой пояс: GMT + 3
Страница 1 из 1