Классический форум-трекер
canvas not supported
Нас вместе: 4 094 411

Остаться в живых 3 / Fritt vilt III (2010) [1080p] BDRemux


 
 
RSS
Начать новую тему   Ответить на тему    Торрент-трекер NNM-Club -> Архив торрентов -> Архив Видео
Автор Сообщение
SNAUTS ®
Ценитель HD
Uploader 1000+
Стаж: 9 лет 8 мес.
Сообщений: 2111
Ratio: 70K
Поблагодарили: 140813
100%
Откуда: .. и только свежий космос
ussr.gif
Остаться в живых 3 / Fritt vilt III (2010) [1080p] BDRemux


Русское название: Остаться в живых 3
Оригинальное название: Fritt vilt III
Страна: Норвегия
Год выпуска: 2010
Жанр: Ужасы

Описание фильма:
Продолжение душераздирающей истории о резне, учиненной жестоким и кровожадным маньяком, среди холодных норвежских снегов. Выживет ли кто-нибудь из главных героев после новой встречи с серийным убийцей, орудующим ледорубом?

Режиссер: Миккел Бренне Сандемус
Актеры: Ида Мари Бакеруд, Ким С. Фалк Йоргенсен, Пал Стокка, Артур Бернинг, Нилс Джонсон

Продолжительность: 01:37:46
Перевод: Одноголосый закадровый (любительский)
Субтитры: Русские



Дата мировой премьеры: 15 октября 2010

Видеокодек: MPEG-4 AVC
Битрейт видео: ~ 18,7 Мбит/сек
Размер кадра: 1920х1080p
Качество видео: BDRemux

Аудио:
1. Dolby Digital Русский 640 kbps 5.1 48 kHz (Одноголосый закадровый - RussianGuy27)
2. DTS-HD Норвежский 5.1 48 kHz 2254 kbps 16-bit (DTS Core: 5.1 48 kHz 1510 kbps 16-bit)
бщее
Уникальный идентификатор : 177263831266707113866885803313831252309 (0x855BC5A65603548292BDC1C7ADAE9155)
Полное имя : Z:\Ostatsja.v.zhivyh-3.2010.MPEG-4-AVC.BluRay-Remux(1080p).mkv
Формат : Matroska
Версия формата : Version 2
Размер файла : 14,9 Гбайт
Продолжительность : 1 ч. 37 м.
Режим общего битрейта : Переменный
Общий поток : 21,8 Мбит/сек
Дата кодирования : UTC 2012-04-27 13:34:14
Программа кодирования : mkvmerge v5.5.0 ('Healer') built on Apr 6 2012 21:43:24
Библиотека кодирования : libebml v1.2.3 + libmatroska v1.3.0

Видео
Идентификатор : 1
Формат : AVC
Формат/Информация : Advanced Video Codec
Профиль формата : High@L4.1
Параметр CABAC формата : Да
Параметр ReFrames формата : 4 кадра
Идентификатор кодека : V_MPEG4/ISO/AVC
Продолжительность : 1 ч. 37 м.
Вид битрейта : Переменный
Битрейт : 18,7 Мбит/сек
Максимальный битрейт : 35,0 Мбит/сек
Ширина : 1920 пикселей
Высота : 1080 пикселей
Соотношение сторон : 16:9
Частота кадров : 23,976 кадра/сек
Стандарт вещания : NTSC
Цветовое пространство : YUV
Субдискретизация насыщенности : 4:2:0
Битовая глубина : 8 бит
Тип развёртки : Прогрессивная
Бит/(Пиксели*Кадры) : 0.376
Размер потока : 12,8 Гбайт (86%)
Язык : Norwegian
Default : Да
Forced : Да
Основные цвета : BT.709-5, BT.1361, IEC 61966-2-4, SMPTE RP177
Характеристики трансфера : BT.709-5, BT.1361
Коэффициенты матрицы : BT.709-5, BT.1361, IEC 61966-2-4 709, SMPTE RP177

Аудио #1
Идентификатор : 2
Формат : AC-3
Формат/Информация : Audio Coding 3
Расширение режима : CM (complete main)
Параметр Endianness формата : Big
Идентификатор кодека : A_AC3
Продолжительность : 1 ч. 37 м.
Вид битрейта : Постоянный
Битрейт : 448 Кбит/сек
Каналы : 6 каналов
Расположение каналов : Front: L C R, Side: L R, LFE
Частота : 48,0 КГц
Битовая глубина : 16 бит
Метод сжатия : С потерями
Размер потока : 313 Мбайт (2%)
Язык : Russian
Default : Да
Forced : Да

Аудио #2
Идентификатор : 3
Формат : DTS
Формат/Информация : Digital Theater Systems
Профиль формата : MA / Core
Идентификатор кодека : A_DTS
Продолжительность : 1 ч. 37 м.
Вид битрейта : Переменный
Битрейт : 2254 Кбит/сек / 1510 Кбит/сек
Каналы : 6 каналов
Расположение каналов : Front: L C R, Side: L R, LFE
Частота : 48,0 КГц
Битовая глубина : 16 бит
Метод сжатия : Без потерь / Lossy
Язык : Norwegian
Default : Нет
Forced : Нет

Текст
Идентификатор : 4
Формат : UTF-8
Идентификатор кодека : S_TEXT/UTF8
Идентификатор кодека/Информация : UTF-8 Plain Text
Язык : Russian
Default : Нет
Forced : Нет

Меню
00:00:00.000 : en:Chapter 1
00:09:14.971 : en:Chapter 2
00:18:14.510 : en:Chapter 3
00:25:48.505 : en:Chapter 4
00:33:53.948 : en:Chapter 5
00:41:36.202 : en:Chapter 6
00:51:34.049 : en:Chapter 7
01:02:38.296 : en:Chapter 8
01:07:38.846 : en:Chapter 9
01:17:16.173 : en:Chapter 10
01:26:49.245 : en:Chapter 11
01:33:01.742 : en:Chapter 12
01:37:45.276 : en:
Скриншоты:
Раздача: 24/7
Не забываем говорить спасибо, Вам не сложно, а мне приятно)))
Прошу с раздачи не уходить! Скачал сам, дай и другим скачать!!!
Приятного просмотра)))
[NNM-Club.ru]_Ostatsja.v.zhivyh-3.2010.MPEG-4-AVC.BluRay-Remux(1080p).mkv.torrent
 Торрент: Золотая раздача  Зарегистрирован
 
Зарегистрируйтесь и скачайте торрент!
75 KB

 Зарегистрирован:   02 Май 2012 15:00:06
 Размер:   14,9 GB  (
 Рейтинг:   3,8 (Голосов: 10)
 Поблагодарили:   19
 Проверка:   Оформление проверено модератором 02 Май 2012 22:24:37
Как cкачать  ·  Как раздать  ·  Правильно оформить  ·  Поднять ратио!  
Топик был перенесен из форума Зарубежные Фильмы (HD) в форум Архив Видео


ElektrAа
ateresh
Стаж: 8 лет 4 мес.
Сообщений: 1
Ratio: 11,444
100%
russia.gif
SNAUTS писал(а): Перейти к сообщению
Остаться в живых 3

Дайте скачать Остаться в живых 3
milordr
Стаж: 6 лет 9 мес.
Сообщений: 29
Ratio: 110,59
100%
Откуда: Люберцы
russia.gif
ateresh писал(а): Перейти к сообщению
SNAUTS писал(а): Перейти к сообщению
Остаться в живых 3

Дайте скачать Остаться в живых 3
Походу, не дадут... Иди на известный трекер. Там, вроде, 1 раздаёт размером поменьше http:// .org/forum/viewtopic.php?t=3997165
AV-p
Стаж: 10 лет 6 мес.
Сообщений: 17
Ratio: 35,334
Поблагодарили: 81
8.82%
Please SEED!
Показать сообщения:   
Начать новую тему   Ответить на тему    Торрент-трекер NNM-Club -> Архив торрентов -> Архив Видео Часовой пояс: GMT + 3
Страница 1 из 1