Интеллигентный торрент-трекер
canvas not supported
Нас вместе: 4 341 496

С девяти до пяти / Nine to Five (1980) DVDRip


 
 
RSS
Начать новую тему   Ответить на тему    Торрент-трекер NNM-Club -> Архив торрентов -> Архив Классики и Старого кино / Артхаус
Автор Сообщение
stalker67 ®
Покровитель талантов
 
Стаж: 6 лет 6 мес.
Сообщений: 630
Ratio: 100,916
Поблагодарили: 39909
100%
Откуда: K-Ч
russia.gif
С девяти до пяти / Nine to Five (1980) DVDRip
Русское название: С девяти до пяти
Оригинальное название: Nine to Five
Год выпуска: 1980
Жанр: Комедия

Описание фильма:
Три разозлённые секретарши - Джуди, Дорали и Вайолет - решают устранить (хотя бы на время) своего нудного шефа, инсценировав его смерть, а на самом деле заключив под домашний арест. Пользуясь моментом, они наводят на работе совершенно иной порядок, наиболее удобный каждому из служащих.

Режиссер: Колин Хиггинс
Актеры: Джейн Фонда, Лили Томлин, Долли Партон, Дэбни Коулмэн, Стерлинг Хейден, Элизабет Уилсон, Генри Джонс, Лоуренс Прессман, Мэриэн Мерсер, Рен Вудс

Продолжительность: 01:49:22
Перевод: Одноголосый закадровый



Видеокодек: Xvid
Битрейт видео: ~1 416 Kbps
Размер кадра: 704x368
Качество видео: DVDRip
Аудио:
1: AC-3, 48.0 KHz, 2 ch, 192 Kbps, CBR (русский)
2: AC-3, 48.0 KHz, 2 ch, 192 Kbps, CBR (английский)
Общее
Полное имя : F:\Фильмы\С девяти до пяти\S_Deviati_Do_Piati.avi
Формат : AVI
Формат/Информация : Audio Video Interleave
Размер файла : 1,39 Гбайт
Продолжительность : 1 ч. 49 м.
Общий поток : 1818 Кбит/сек
Программа кодирования : VirtualDubMod 1.5.10.2 (build 2540/release)
Библиотека кодирования : VirtualDubMod build 2540/release

Видео
Идентификатор : 0
Формат : MPEG-4 Visual
Профиль формата : Advanced Simple@L5
Параметр BVOP формата : 2
Параметр QPel формата : Нет
Параметр GMC формата : Без точки перехода
Параметр матрицы формата : Default (MPEG)
Режим смешивания : Сжатый битовый поток
Идентификатор кодека : DX50
Идентификатор кодека/Подсказка : DivX 5
Продолжительность : 1 ч. 49 м.
Битрейт : 1416 Кбит/сек
Ширина : 704 пикселя
Высота : 368 пикселей
Соотношение сторон : 1,913
Частота кадров : 29,970 кадров/сек
Цветовое пространство : YUV
Субдискретизация насыщенности : 4:2:0
Битовая глубина : 8 бит
Тип развёртки : Прогрессивная
Метод сжатия : С потерями
Бит/(Пиксели*Кадры) : 0.182
Размер потока : 1,08 Гбайт (78%)
Библиотека кодирования : XviD 1.2.0.dev47 (UTC 2006-11-01)

Аудио #1
Идентификатор : 1
Формат : AC-3
Формат/Информация : Audio Coding 3
Расширение режима : CM (complete main)
Параметр Endianness формата : Big
Идентификатор кодека : 2000
Продолжительность : 1 ч. 49 м.
Вид битрейта : Постоянный
Битрейт : 192 Кбит/сек
Каналы : 2 канала
Расположение каналов : Front: L R
Частота : 48,0 КГц
Битовая глубина : 16 бит
Метод сжатия : С потерями
Размер потока : 150 Мбайт (11%)
Выравнивание : Разделение по промежуткам
Продолжительность промежутка : 33 мс. (1,00 видеокадр)
Время предзагрузки промежутка : 500 мс.

Аудио #2
Идентификатор : 2
Формат : AC-3
Формат/Информация : Audio Coding 3
Расширение режима : CM (complete main)
Параметр Endianness формата : Big
Идентификатор кодека : 2000
Продолжительность : 1 ч. 49 м.
Вид битрейта : Постоянный
Битрейт : 192 Кбит/сек
Каналы : 2 канала
Расположение каналов : Front: L R
Частота : 48,0 КГц
Битовая глубина : 16 бит
Метод сжатия : С потерями
Размер потока : 150 Мбайт (11%)
Выравнивание : Разделение по промежуткам
Продолжительность промежутка : 33 мс. (1,00 видеокадр)
Время предзагрузки промежутка : 500 мс.
Скриншоты:




Время раздачи: 24/7
[NNM-Club.ru]_S_Deviati_Do_Piati.avi.torrent
 Торрент: Золотая раздача  Зарегистрирован
 
Примагнититься
Free Leech
Зарегистрируйтесь и скачайте торрент!
14,3 KB
 Зарегистрирован:   04 Май 2012 15:25:55
 Размер:   1,39 GB  (
 Рейтинг:   4,9 (Голосов: 14)
 Поблагодарили:   59
 Проверка:   Оформление проверено модератором 05 Май 2012 07:12:22
Как cкачать  ·  Как раздать  ·  Правильно оформить  ·  Поднять ратио!  
Загрузка...
meetgood
Стаж: 9 лет 10 мес.
Сообщений: 51
Ratio: 27,742
81.19%
клевый кин :)
Топик был перенесен из форума Старые Зарубежные Фильмы (HD*Rip/LQ, DVDRip, SATRip, VHSRip) в форум Архив Классики и Старого кино / Артхаус

Причина переноса: Seeder Пессимист last seen: 2014-01-24

Исправил релиз - напиши ЛС lexandros, дав ссылку на релиз.
Если нет ответа 24 часа - нажми на кнопку "Обратить внимание модераторов".
Показать сообщения:   
Начать новую тему   Ответить на тему    Торрент-трекер NNM-Club -> Архив торрентов -> Архив Классики и Старого кино / Артхаус Часовой пояс: GMT + 3
Страница 1 из 1

День смеха и юмора отмечается 1 апреля. В этот день принято шутить и разыгрывать друзей, коллег по работе, домашних, словом всех, с кем Вам предстоит увидеться в этот праздник – первое апреля. Первоапрельские розыгрыши, приколы на 1 апреля, первоапрельские шутки должны быть веселыми и безобидными. Приколы на 1 апреля, как правило, удаются в том случае, если человек забыл какой сегодня месяц и день, словом, забыл про 1 апреля – день смеха, шуток, день дурака.

Желаем Вам много улыбок и хорошего настроения в этот день!
С Уважением, администрация NNM-Club :)