Классический форум-трекер
canvas not supported
Нас вместе: 4 079 096

Экипаж машины боевой (1983) SATRip


 
 
RSS
Начать новую тему   Ответить на тему    Торрент-трекер NNM-Club -> Классика кино и Старые фильмы до 90-х -> Отечественная Классика (HD*Rip/LQ, DVDRip, SATRip, VHSRip)
Автор Сообщение
art-61 ®
Стаж: 8 лет 4 мес.
Сообщений: 1100
Ratio: 137,949
Поблагодарили: 141191
100%
Откуда: Санкт-Петербург
russia.gif
Экипаж машины боевой (1983) SATRip
Жанр: Военный, Драма
Страна: СССР,
Студия: Одесская киностудия

Описание:
Лето 1943 года, ток фронта. В одном из ожесточенных боев подбит танк «Т-34». Командир танка Саша Меньшов тяжело ранен. После лечения в госпитале — снова фронт. Накануне большого боя последовал приказ — в сражения не вступать, беречь силы.
Однако продолжающиеся дерзкие вылазки фашистского танка, поджегшего машину Меньшова, приводят его к решению уничтожить немецкого аса. В поединке с боевым экипажем Меньшова вражеская машина уничтожена. Эта победа явилась как бы прологом знаменитого разгрома гитлеровских полчищ в танковом сражении под Прохоровкой.

Режиссер: Виталий Василевский
Актеры: Владимир Вихров, Леонид Яновский, Сергей Маковецкий, Михаил Семенов, Олег Куликович, Борис Сабуров, Сергей Ляхницкий, Владимир Вихров, Борис Зайденберг, Маргарита Криницына, Михаил Калинкин, Владимир Маренков, Владимир Наумцев, Евгений Пашин, Антонина Кончакова, Владимир Миняйло

Продолжительность: 01:03:19
Язык: Оригинальный (русский)
Дата мировой премьеры: 30 апреля 1984
Дата выхода DVD релиза: 20 августа 2009, «Флагман-Трейд»



Видеокодек: Xvid
Битрейт видео: ~1408 Кбит/сек
Размер кадра: 704x352
Качество видео: SATRip
Аудиокодек: MP3, 2 ch
Битрейт аудио: 128 Кбит/с
Формат : AVI
Формат/Информация : Audio Video Interleave
Размер файла : 700 Мбайт
Продолжительность : 1 ч. 3 м.
Общий поток : 1545 Кбит/сек
Программа кодирования : VirtualDubMod 1.5.10.2 (build 2540/release)
Библиотека кодирования : VirtualDubMod build 2540/release

Видео
Идентификатор : 0
Формат : MPEG-4 Visual
Профиль формата : Advanced Simple@L5
Параметр BVOP формата : 2
Параметр QPel формата : Нет
Параметр GMC формата : Без точки перехода
Параметр матрицы формата : Default (H.263)
Режим смешивания : Сжатый битовый поток
Идентификатор кодека : XVID
Идентификатор кодека/Подсказка : XviD
Продолжительность : 1 ч. 3 м.
Битрейт : 1408 Кбит/сек
Ширина : 704 пикселя
Высота : 352 пикселя
Соотношение сторон : 2,000
Частота кадров : 25,000 кадров/сек
Цветовое пространство : YUV
Субдискретизация насыщенности : 4:2:0
Битовая глубина : 8 бит
Тип развёртки : Прогрессивная
Метод сжатия : С потерями
Бит/(Пиксели*Кадры) : 0.227
Размер потока : 637 Мбайт (91%)
Библиотека кодирования : XviD 1.2.1 (UTC 2008-12-04)

Аудио
Идентификатор : 1
Формат : MPEG Audio
Версия формата : Version 1
Профиль формата : Layer 3
Идентификатор кодека : 55
Идентификатор кодека/Подсказка : MP3
Продолжительность : 1 ч. 3 м.
Вид битрейта : Постоянный
Битрейт : 128 Кбит/сек
Каналы : 2 канала
Частота : 48,0 КГц
Метод сжатия : С потерями
Размер потока : 58,0 Мбайт (8%)
Выравнивание : Соединение по промежуткам
Продолжительность промежутка : 40 мс. (1,00 видеокадр)
Время предзагрузки промежутка : 504 мс.
Библиотека кодирования : LAME3.98r
Настройки программы : -m s -V 4 -q 2 -lowpass 17 -b 128
Скриншоты:


Время раздачи: 24/7 по возможности
[NNM-Club.ru]_Ekipazh.mashiny.boevoj.1983.XviD.SATRip.avi.torrent
 Торрент: Платиновая раздача  Зарегистрирован
 
Скачать


Примагнититься
 Зарегистрирован:   09 Май 2012 01:05:44
 Размер:   700 MB  (
 Рейтинг:   4,6 (Голосов: 74)
 Поблагодарили:   193
 Проверка:   Оформление проверено модератором 09 Май 2012 01:29:15
Как cкачать  ·  Как раздать  ·  Правильно оформить  ·  Поднять ратио!  
Загрузка...
andycomm1
Стаж: 9 лет 6 мес.
Сообщений: 236
Ratio: 1,437
Поблагодарили: 38
76.12%
Фильм хорош, чего там!
Но уж и дурят совки нашего брата, ой, и дурят! Только навскидку - год 1943, а танк - Т-34-85. Экипаж - 5 человек...
ИМХО На войне - как на войне, писанном РЕАЛЬНЫМ фронтовиком-окопником - вот там без дураков. Особенных.

Раздающему - спасибо
Клакастый
Стаж: 7 лет 9 мес.
Сообщений: 28
Ratio: 0,626
100%
Откуда: Череповец
russia.gif
Побольше бы...спасибо.
art-61 ®
Стаж: 8 лет 4 мес.
Сообщений: 1100
Ratio: 137,949
Поблагодарили: 141191
100%
Откуда: Санкт-Петербург
russia.gif
Всех с Великим Праздником!

_________________
В этом безумном мире возможно всё!
endoftime
Стаж: 9 лет 10 мес.
Сообщений: 82
Ratio: 121,937
100%
ussr.gif
Это игровое кино, а не историческое... Вон в бресткой крепости и ба-30 нашли, и панцеры 2-е, 45-ки а не зисы в качестве пто.... но кино не столько игровое сколько историческое...
denPedroMarcos
Стаж: 8 лет 3 мес.
Сообщений: 6
Ratio: 0,625
64.52%
Откуда: Северный Кавказ
russia.gif
СПАСИБО ВАМ БОЛЬШОЕ!!! ЗДОРОВЬЯ ВАМ И ХРАНИ ВАС БОГ!!! :cool:
buka79_07
Стаж: 8 лет 8 мес.
Сообщений: 27
Ratio: 1,388
100%
russia.gif
Отличный фильм! Спасибо нашим дедам за все! Низкий им поклон!
Показать сообщения:   
Начать новую тему   Ответить на тему    Торрент-трекер NNM-Club -> Классика кино и Старые фильмы до 90-х -> Отечественная Классика (HD*Rip/LQ, DVDRip, SATRip, VHSRip) Часовой пояс: GMT + 3
Страница 1 из 1