Классический форум-трекер
canvas not supported
Нас вместе: 4 076 886

Ганц: Идеальный ответ / Gantz: Perfect Answer (2011) [1080p] BDRip


 
 
RSS
Начать новую тему   Ответить на тему    Торрент-трекер NNM-Club -> Зарубежное кино -> Азиатское кино (HD, UHD, UHD-LQ)
Автор Сообщение
VirtualBox ®
 
Стаж: 7 лет 3 мес.
Сообщений: 240
Ratio: 2M
Раздал: 30,19 TB
Поблагодарили: 21169
100%

Ганц: Идеальный ответ / Gantz: Perfect Answer (2011) [1080p] BDRip

Производство: Япония , Nikkatsu Corporation, Nippon Television Network, Shueisha, Toho Company
Жанр: Фантастика, боевик, детектив
Перевод:
•1: Одноголосый закадровый - zamez
•2: Любительский (двухголосый закадровый)
•3: Одноголосый закадровый - MifSnaiper
Cубтитры: русские (Okidzyke), английские

Режисcер: Синсуке Сато
В ролях: Казунари Ниномия, Матсуяма Кеничи, Юрико Ёшитака, Каната Хонго, Коу Аяно, Аюми Ито, Томорово Тагути, Такаюки Ямада
Описание:
Школьник Кэй Куроно и его друг Като Масару погибают под колёсами поезда, пытаясь спасти упавшего на рельсы бомжа. Вместо того, чтобы умереть, они попадают в закрытую квартиру в центре Токио, где в единственной комнате их встречают ещё несколько недавно погибших человек. Интерьер комнаты представлен лишь одним большим чёрным шаром, имя которого — Ганц. Двери и окна не открываются в силу того, что до них нельзя дотронуться. Вдруг шар резко открывает три свои панели (боковые и заднюю) и играет песню японской утренней зарядки, которую по утрам крутят по японскому радио. На передней части шара загорается надпись: «Ваши старые жизни закончились. Как распорядиться вашей новой жизнью — решать мне. Это закон.» С этого момента Кэй, Като и остальные выжившие вынуждены участвовать в странной и страшной игре.

Продолжительность: 02:21:51
Качество: BDRip 1080p

Формат: MKV
Видеокодек: MPEG4 AVC/H.264
Битрейт видео: 12.6 Mbps
Размер кадра: 1920 x 1036

Аудио 1: Русский DTS Audio 5.1 / 48 kHz / 1510 kbps / 24-bit - zamez
Аудио 2: Русский Dolby Digital Audio 5.1 / 48 kHz / 448 kbps - DVO
Аудио 3: Русский Dolby Digital Audio 2.0 / 48 kHz / 192 kbps - MifSnaiper
Аудио 4: Оригинал DTS Audio 5.1 / 48 kHz / 1510 kbps / 24-bit

    General
    Complete name : \Ганц 2. Идеальный ответ (2011. Gantz II. Perfect Answer) 1080p.mkv
    Format : Matroska
    File size : 16.1 GiB
    Duration : 2h 21mn
    Overall bit rate : 16.3 Mbps
    Movie name : Gantz.II.Perfect.Answer.2011.BluRay.1080p.DTS.x264-CHD [ .org]
    Encoded date : UTC 2012-01-15 03:01:02
    Writing application : mkvmerge v4.9.1 ('Ich will') сборка от Jul 11 2011 23:53:15
    Writing library : libebml v1.2.1 + libmatroska v1.1.1

    Video
    ID : 1
    Format : AVC
    Format/Info : Advanced Video Codec
    Format profile : High@L4.1
    Format settings, CABAC : Yes
    Format settings, ReFrames : 4 frames
    Muxing mode : Container profile=Unknown@4.1
    Codec ID : V_MPEG4/ISO/AVC
    Duration : 2h 21mn
    Bit rate : 12.6 Mbps
    Width : 1 920 pixels
    Height : 1 036 pixels
    Display aspect ratio : 1.853
    Frame rate : 23.976 fps
    Color space : YUV
    Chroma subsampling : 4:2:0
    Bit depth : 8 bits
    Scan type : Progressive
    Bits/(Pixel*Frame) : 0.265
    Stream size : 12.2 GiB (76%)
    Title : Gantz.II.Perfect.Answer.2011.BluRay.1080p.DTS.x264-CHD
    Writing library : x264 core 119 r2106 07efeb4
    Encoding settings : cabac=1 / ref=4 / deblock=1:-3:-3 / analyse=0x3:0x113 / me=umh / subme=10 / psy=1 / psy_rd=1.05:0.10 / mixed_ref=1 / me_range=48 / chroma_me=1 / trellis=2 / 8x8dct=1 / cqm=1 / deadzone=21,11 / fast_pskip=0 / chroma_qp_offset=-2 / threads=12 / sliced_threads=0 / nr=0 / decimate=1 / interlaced=0 / bluray_compat=0 / constrained_intra=0 / bframes=6 / b_pyramid=2 / b_adapt=2 / b_bias=0 / direct=3 / weightb=1 / open_gop=0 / weightp=2 / keyint=250 / keyint_min=23 / scenecut=40 / intra_refresh=0 / rc_lookahead=60 / rc=2pass / mbtree=1 / bitrate=12624 / ratetol=2.0 / qcomp=0.70 / qpmin=3 / qpmax=69 / qpstep=4 / cplxblur=20.0 / qblur=0.5 / vbv_maxrate=40000 / vbv_bufsize=30000 / nal_hrd=none / ip_ratio=1.40 / aq=2:1.00
    Language : Japanese

    Audio #1
    ID : 2
    Format : DTS
    Format/Info : Digital Theater Systems
    Codec ID : A_DTS
    Duration : 2h 21mn
    Bit rate mode : Constant
    Bit rate : 1 510 Kbps
    Channel(s) : 6 channels
    Channel positions : Front: L C R, Side: L R, LFE
    Sampling rate : 48.0 KHz
    Bit depth : 24 bits
    Stream size : 1.50 GiB (9%)
    Title : VO [zamez по субтитрам Okidzyke]
    Language : Russian

    Audio #2
    ID : 3
    Format : AC-3
    Format/Info : Audio Coding 3
    Mode extension : CM (complete main)
    Codec ID : A_AC3
    Duration : 2h 21mn
    Bit rate mode : Constant
    Bit rate : 448 Kbps
    Channel(s) : 6 channels
    Channel positions : Front: L C R, Side: L R, LFE
    Sampling rate : 48.0 KHz
    Bit depth : 16 bits
    Stream size : 455 MiB (3%)
    Title : DVO [AnsverITO & Трина Дубовицкая]
    Language : Russian

    Audio #3
    ID : 4
    Format : AC-3
    Format/Info : Audio Coding 3
    Mode extension : CM (complete main)
    Codec ID : A_AC3
    Duration : 2h 21mn
    Bit rate mode : Constant
    Bit rate : 192 Kbps
    Channel(s) : 2 channels
    Channel positions : Front: L R
    Sampling rate : 48.0 KHz
    Bit depth : 16 bits
    Stream size : 195 MiB (1%)
    Title : VO [MifSnaiper по субтитрам Okidzyke]
    Language : Russian

    Audio #4
    ID : 5
    Format : DTS
    Format/Info : Digital Theater Systems
    Codec ID : A_DTS
    Duration : 2h 21mn
    Bit rate mode : Constant
    Bit rate : 1 510 Kbps
    Channel(s) : 6 channels
    Channel positions : Front: L C R, Side: L R, LFE
    Sampling rate : 48.0 KHz
    Bit depth : 24 bits
    Stream size : 1.50 GiB (9%)
    Language : Japanese

    Text #1
    ID : 6
    Format : UTF-8
    Codec ID : S_TEXT/UTF8
    Codec ID/Info : UTF-8 Plain Text
    Title : перевод Okidzyke
    Language : Russian

    Text #2
    ID : 7
    Format : UTF-8
    Codec ID : S_TEXT/UTF8
    Codec ID/Info : UTF-8 Plain Text
    Title : full
    Language : English

    Text #3
    ID : 8
    Format : UTF-8
    Codec ID : S_TEXT/UTF8
    Codec ID/Info : UTF-8 Plain Text
    Title : forced
    Language : English

    Menu
    00:00:00.000 : en:00:00:00.000
    00:02:37.199 : en:00:02:37.199
    00:09:39.996 : en:00:09:39.996
    00:15:27.009 : en:00:15:27.009
    00:22:49.910 : en:00:22:49.910
    00:29:45.117 : en:00:29:45.117
    00:40:05.820 : en:00:40:05.820
    00:47:14.040 : en:00:47:14.040
    00:50:37.201 : en:00:50:37.201
    00:58:09.361 : en:00:58:09.361
    01:07:23.248 : en:01:07:23.248
    01:15:48.878 : en:01:15:48.878
    01:23:47.940 : en:01:23:47.940
    01:35:11.623 : en:01:35:11.623
    01:40:08.085 : en:01:40:08.085
    01:49:02.953 : en:01:49:02.953
    01:57:25.455 : en:01:57:25.455
    02:08:28.701 : en:02:08:28.701
    02:16:46.698 : en:02:16:46.698
    02:21:29.481 : en:02:21:29.481




Время раздачи: 24/7 до 5 сидов
[NNM-Club.me]_Gants 2. Ideal'nyiy otvet (2011. Gantz II. Perfect Answer) 1080p.mkv.torrent
 Торрент: Платиновая раздача  Зарегистрирован
 
Скачать


Примагнититься
 Зарегистрирован:   24 Ноя 2018 10:46:17
 Размер:   16,1 GB  (
 Рейтинг:   4,8 (Голосов: 27)
 Поблагодарили:   124
 Проверка:   Оформление проверено модератором 24 Ноя 2018 11:49:09
Как cкачать  ·  Как раздать  ·  Правильно оформить  ·  Поднять ратио!  

_________________
«Притворяйся вежливым — привыкнешь.»
Клакастый
Стаж: 7 лет 7 мес.
Сообщений: 28
Ratio: 0,626
100%
Откуда: Череповец
russia.gif
Шляпа какая-то.. (
Necro_rElven
Стаж: 8 лет 6 мес.
Сообщений: 77
Ratio: 4,005
100%
Откуда: Железногорск
russia.gif
подскажите как 1 часть называется
VirtualBox ®
 
Стаж: 7 лет 3 мес.
Сообщений: 240
Ratio: 2M
Раздал: 30,19 TB
Поблагодарили: 21169
100%
Necro_rElven
Ганц

_________________
«Притворяйся вежливым — привыкнешь.»
Necro_rElven
Стаж: 8 лет 6 мес.
Сообщений: 77
Ratio: 4,005
100%
Откуда: Железногорск
russia.gif
VirtualBox писал(а): Перейти к сообщению
Necro_rElven
Ганц

оригинально)))) была бы ещё раздача
VirtualBox ®
 
Стаж: 7 лет 3 мес.
Сообщений: 240
Ratio: 2M
Раздал: 30,19 TB
Поблагодарили: 21169
100%
Тут есть =)

_________________
«Притворяйся вежливым — привыкнешь.»
Necro_rElven
Стаж: 8 лет 6 мес.
Сообщений: 77
Ratio: 4,005
100%
Откуда: Железногорск
russia.gif
благодарю... пригляделся.. оказалось есть разные Ганцы 2011 года)))
sdivinorum
Стаж: 9 лет 9 мес.
Сообщений: 636
Ratio: 7,694
100%
Откуда: Донецк
ukraine.gif
Сиды.Появитесь.Начал лить на 7% остановилось.
Благодарю.

_________________
"Лишь утратив всё до конца, ты обретаешь свободу." ©
Spase X
Стаж: 2 года 5 мес.
Сообщений: 86
Ratio: 0,726
100%
nnm-club.gif
Аниме смотрел. Жёсткое. Рекомендую.
DieserWelt
Стаж: 8 лет 3 мес.
Сообщений: 849
Ratio: 175,668
100%
Откуда: из-за Полярного круга
Лучше посмотрите Gantz: O, немного не каноничная вырезка из оригинальной манги.
Вот там есть на что посмотреть! =)
Показать сообщения:   
Начать новую тему   Ответить на тему    Торрент-трекер NNM-Club -> Зарубежное кино -> Азиатское кино (HD, UHD, UHD-LQ) Часовой пояс: GMT + 3
Страница 1 из 1