Классический форум-трекер
canvas not supported
Нас вместе: 4 093 669

То, что её заводит / Fа meg pа, for faen (2011) HDRip


 
 
RSS
Начать новую тему   Ответить на тему    Торрент-трекер NNM-Club -> Архив торрентов -> Архив Видео
Автор Сообщение
Zov72 ®
Стаж: 10 лет
Сообщений: 4743
Ratio: 110,504
Поблагодарили: 599846
100%
Откуда: Вольный кабан
wild_hogs.gif
То, что её заводит / Fа meg pа, for faen (2011) HDRip
Русское название: То, что её заводит
Оригинальное название: Fа meg pа, for faen
Год выпуска: 2011
Производство: Норвегия, Motlys
Жанр: Мелодрама, комедия
Перевод: Многоголосый закадровый, профессиональный |Лицензия|
Субтитры: Отсутствуют

Дата мировой премьеры: 20 апреля 2011
Дата российской премьеры: 29 марта 2012, «Русский репортаж»
Дата выхода DVD релиза: 7 мая 2012, «Новый Диск»

Режиссер: Яннике Систад Якобсен
Актеры: Хелен Бергшолм, Генриетта Стинстрап, Джулия Баке-Виг, Джулия Элиз Шахт, Артур Бернинг и др.

Описание фильма:
Альме 15 лет, ее самые «заводные» годы проходят в захолустном норвежском городке. Здесь тишина, покой и овечки на лугах — кошмар для барышни с чрезвычайно развитым воображением и непрекращающимся гормональным взрывом! Неудивительно, что Альма полностью погрузилась в эротические мечты, подогреваемые телефонной службой «Дикие и горячие фантазии». И только мама возвращает Альму к реальности, когда видит счета за «секс по телефону»!

Продолжительность: 01:12:32
Качество видео: HDRip

Видеокодек: Xvid
Битрейт видео: ~1970 kbps
Размер кадра: 720x384
Аудио #1: 48 kHz, AC3, 6 ch, 448.00 kbps русский
Аудио #2: 48 kHz, AC3, 6 ch, 448.00 kbps норвежский

Сэмпл: Скачать
Код:

Общее
Полное имя                               : E:\Загрузка\Turn.Me.On.Dammit.2011.P.HDRip.avi
Формат                                   : AVI
Формат/Информация                        : Audio Video Interleave
Размер файла                             : 1,46 Гбайт
Продолжительность                        : 1 ч. 12 м.
Общий поток                              : 2880 Кбит/сек
Программа кодирования                    : VirtualDubMod 1.5.10.2 (build 2540/release)
Библиотека кодирования                   : VirtualDubMod build 2540/release

Видео
Идентификатор                            : 0
Формат                                   : MPEG-4 Visual
Профиль формата                          : Advanced Simple@L5
Параметр BVOP формата                    : 2
Параметр QPel формата                    : Нет
Параметр GMC формата                     : Без точки перехода
Параметр матрицы формата                 : Выборочная
Идентификатор кодека                     : XVID
Идентификатор кодека/Подсказка           : XviD
Продолжительность                        : 1 ч. 12 м.
Битрейт                                  : 1970 Кбит/сек
Ширина                                   : 720 пикселей
Высота                                   : 384 пикселя
Соотношение сторон                       : 1,85:1
Частота кадров                           : 25,000 кадров/сек
Цветовое пространство                    : YUV
Субдискретизация насыщенности            : 4:2:0
Битовая глубина                          : 8 бит
Тип развёртки                            : Прогрессивная
Метод сжатия                             : С потерями
Бит/(Пиксели*Кадры)                      : 0.285
Размер потока                            : 1022 Мбайт (68%)
Библиотека кодирования                   : XviD 1.2.1 (UTC 2008-12-04)

Аудио #1
Идентификатор                            : 1
Формат                                   : AC-3
Формат/Информация                        : Audio Coding 3
Расширение режима                        : CM (complete main)
Параметр Endianness формата              : Big
Идентификатор кодека                     : 2000
Продолжительность                        : 1 ч. 12 м.
Вид битрейта                             : Постоянный
Битрейт                                  : 448 Кбит/сек
Каналы                                   : 6 каналов
Расположение каналов                     : Front: L C R, Side: L R, LFE
Частота                                  : 48,0 КГц
Битовая глубина                          : 16 бит
Метод сжатия                             : С потерями
Размер потока                            : 232 Мбайт (16%)
Выравнивание                             : Разделение по промежуткам
Продолжительность промежутка             : 40  мс. (1,00 видеокадр)
Время предзагрузки промежутка            : 500  мс.

Аудио #2
Идентификатор                            : 2
Формат                                   : AC-3
Формат/Информация                        : Audio Coding 3
Расширение режима                        : CM (complete main)
Параметр Endianness формата              : Big
Идентификатор кодека                     : 2000
Продолжительность                        : 1 ч. 12 м.
Вид битрейта                             : Постоянный
Битрейт                                  : 448 Кбит/сек
Каналы                                   : 6 каналов
Расположение каналов                     : Front: L C R, Side: L R, LFE
Частота                                  : 48,0 КГц
Битовая глубина                          : 16 бит
Метод сжатия                             : С потерями
Размер потока                            : 232 Мбайт (16%)
Выравнивание                             : Разделение по промежуткам
Продолжительность промежутка             : 40  мс. (1,00 видеокадр)
Время предзагрузки промежутка            : 500  мс.


Cкриншоты из фильма:



Приятного просмотра
и не забываем говорить СПАСИБО...

Время раздачи: 24/7
до 15 скачавших..
[NNM-Club.ru]_Turn.Me.On.Dammit.2011.P.HDRip.avi.torrent
 Торрент: Золотая раздача  Зарегистрирован
 
Зарегистрируйтесь и скачайте торрент!
15,1 KB

Примагнититься
 Зарегистрирован:   10 Май 2012 07:27:14
 Размер:   1,46 GB  (
 Рейтинг:   4,5 (Голосов: 43)
 Поблагодарили:   186
 Проверка:   Оформление проверено модератором 10 Май 2012 08:35:47
Как cкачать  ·  Как раздать  ·  Правильно оформить  ·  Поднять ратио!  
pavel omsk
Стаж: 8 лет 7 мес.
Сообщений: 200
Ratio: 11,059
Поблагодарили: 3767
100%
russia.gif
=) Спасибо за релиз !
kiloka
Стаж: 11 лет 4 мес.
Сообщений: 370
Ratio: 22,185
Поблагодарили: 920
100%
ussr.gif
... в таких фильмах поощряется, нашим детям это нельзя категорически смотреть - иначе будем иметь то что сейчас...
slon2000ru
Стаж: 13 лет 4 мес.
Сообщений: 93
Ratio: 5,123
86.49%
russia.gif
ну да конечно ввели дети до 18, маразматики тупые придумали :) против природы не попрешь :) я тоже помню уже в 13-14 уже оч хотел, хотя когда мне столько было все было запрещено :(
Топик был перенесен из форума Зарубежные Фильмы (HD*Rip/LQ, DVDRip, SATRip, VHSRip) в форум Архив Видео

Причина переноса: Нет раздающих больше 6 месяцев

Исправил релиз - напиши ЛС karfagen1975, дав ссылку на релиз.
Если нет ответа 24 часа - нажми на кнопку "Обратить внимание модераторов".
Показать сообщения:   
Начать новую тему   Ответить на тему    Торрент-трекер NNM-Club -> Архив торрентов -> Архив Видео Часовой пояс: GMT + 3
Страница 1 из 1