Классический форум-трекер
canvas not supported
Нас вместе: 4 094 000

То, что её заводит / Fа meg pа, for faen (2011) [H.264/720p-LQ] BDRip


 
 
RSS
Начать новую тему   Ответить на тему    Торрент-трекер NNM-Club -> Архив торрентов -> Архив Видео
Автор Сообщение
Zov72 ®
Стаж: 10 лет 1 мес.
Сообщений: 4743
Ratio: 110,504
Поблагодарили: 599873
100%
Откуда: Вольный кабан
wild_hogs.gif
То, что её заводит / Fа meg pа, for faen (2011) BDRip
Русское название: То, что её заводит
Оригинальное название: Fа meg pа, for faen
Год выпуска: 2011
Производство: Норвегия, Motlys
Жанр: Мелодрама, комедия
Перевод: Многоголосый закадровый, профессиональный
Субтитры: Отсутствуют

Дата мировой премьеры: 20 апреля 2011
Дата российской премьеры: 29 марта 2012, «Русский репортаж»
Дата выхода DVD релиза: 7 мая 2012, «Новый Диск»

Режиссер: Яннике Систад Якобсен
Актеры: Хелен Бергшолм, Генриетта Стинстрап, Джулия Баке-Виг, Джулия Элиз Шахт, Артур Бернинг и др.

Описание фильма:
Альме 15 лет, ее самые «заводные» годы проходят в захолустном норвежском городке. Здесь тишина, покой и овечки на лугах — кошмар для барышни с чрезвычайно развитым воображением и непрекращающимся гормональным взрывом! Неудивительно, что Альма полностью погрузилась в эротические мечты, подогреваемые телефонной службой «Дикие и горячие фантазии». И только мама возвращает Альму к реальности, когда видит счета за «секс по телефону»!

Продолжительность: 01:12:32
Качество видео: BDRip

Видеокодек: MPEG-4 AVC/H.264
Битрейт видео: ~4061 kbps
Размер кадра: 1280x688
Аудио #1: 48 kHz, AC3, 6 ch, 448.00 kbps русский
Аудио #2: 48 kHz, AC3, 6 ch, 448.00 kbps норвежский

Сэмпл: Скачать
Код:


Общее
Уникальный идентификатор                 : 249314621238078112519399180598509541563 (0xBB903FDCB71B893EA88EC4856F1F98BB)
Полное имя                               : C:\Users\SerG\Videos\Turn.me.on,dammit!.2011.x264.BDRip.720p.MVO.mkv
Формат                                   : Matroska
Версия формата                           : Version 2
Размер файла                             : 2,51 Гбайт
Продолжительность                        : 1 ч. 12 м.
Общий поток                              : 4953 Кбит/сек
Дата кодирования                         : UTC 2012-05-10 04:52:23
Программа кодирования                    : mkvmerge v5.2.1 ('A Far Off Place') built on Feb  6 2012 10:08:15
Библиотека кодирования                   : libebml v1.2.3 + libmatroska v1.3.0

Видео
Идентификатор                            : 1
Формат                                   : AVC
Формат/Информация                        : Advanced Video Codec
Профиль формата                          : High@L3.1
Параметр CABAC формата                   : Да
Параметр ReFrames формата                : 4 кадра
Режим смешивания                         : Header stripping
Идентификатор кодека                     : V_MPEG4/ISO/AVC
Продолжительность                        : 1 ч. 12 м.
Битрейт                                  : 4061 Кбит/сек
Ширина                                   : 1280 пикселей
Высота                                   : 688 пикселей
Соотношение сторон                       : 1,85:1
Частота кадров                           : 25,000 кадров/сек
Цветовое пространство                    : YUV
Субдискретизация насыщенности            : 4:2:0
Битовая глубина                          : 8 бит
Тип развёртки                            : Прогрессивная
Бит/(Пиксели*Кадры)                      : 0.184
Размер потока                            : 2,01 Гбайт (80%)
Заголовок                                : То, что её заводит
Библиотека кодирования                   : x264 core 120 r2164 da19765
Настройки программы                      : cabac=1 / ref=4 / deblock=1:0:0 / analyse=0x3:0x133 / me=hex / subme=6 / psy=1 / psy_rd=1.00:0.00 / mixed_ref=1 / me_range=16 / chroma_me=1 / trellis=1 / 8x8dct=1 / cqm=0 / deadzone=21,11 / fast_pskip=0 / chroma_qp_offset=-2 / threads=6 / sliced_threads=0 / nr=0 / decimate=1 / interlaced=0 / bluray_compat=0 / constrained_intra=0 / bframes=3 / b_pyramid=2 / b_adapt=2 / b_bias=0 / direct=1 / weightb=1 / open_gop=0 / weightp=2 / keyint=250 / keyint_min=25 / scenecut=40 / intra_refresh=0 / rc_lookahead=40 / rc=2pass / mbtree=1 / bitrate=4061 / ratetol=2.0 / qcomp=0.60 / qpmin=0 / qpmax=69 / qpstep=4 / cplxblur=20.0 / qblur=0.5 / ip_ratio=1.40 / aq=1:1.00
Язык                                     : English
Default                                  : Да
Forced                                   : Нет

Аудио #1
Идентификатор                            : 2
Формат                                   : AC-3
Формат/Информация                        : Audio Coding 3
Расширение режима                        : CM (complete main)
Параметр Endianness формата              : Big
Режим смешивания                         : Header stripping
Идентификатор кодека                     : A_AC3
Продолжительность                        : 1 ч. 12 м.
Вид битрейта                             : Постоянный
Битрейт                                  : 448 Кбит/сек
Каналы                                   : 6 каналов
Расположение каналов                     : Front: L C R, Side: L R, LFE
Частота                                  : 48,0 КГц
Битовая глубина                          : 16 бит
Метод сжатия                             : С потерями
Размер потока                            : 232 Мбайт (9%)
Заголовок                                : MVO
Язык                                     : Russian
Default                                  : Да
Forced                                   : Нет

Аудио #2
Идентификатор                            : 3
Формат                                   : AC-3
Формат/Информация                        : Audio Coding 3
Расширение режима                        : CM (complete main)
Параметр Endianness формата              : Big
Режим смешивания                         : Header stripping
Идентификатор кодека                     : A_AC3
Продолжительность                        : 1 ч. 12 м.
Вид битрейта                             : Постоянный
Битрейт                                  : 448 Кбит/сек
Каналы                                   : 6 каналов
Расположение каналов                     : Front: L C R, Side: L R, LFE
Частота                                  : 48,0 КГц
Битовая глубина                          : 16 бит
Метод сжатия                             : С потерями
Размер потока                            : 232 Мбайт (9%)
Заголовок                                : ORIG
Язык                                     : English
Default                                  : Нет
Forced                                   : Нет


Cкриншоты из фильма:




Приятного просмотра
и не забываем говорить СПАСИБО...

Время раздачи: 24/7
до 15 скачавших..
[NNM-Club.ru]_Turn.me.on,dammit!.2011.x264.BDRip.720p.MVO.mkv.torrent
 Торрент: Платиновая раздача  Зарегистрирован
 
Скачать


Примагнититься
 Зарегистрирован:   10 Май 2012 08:00:32
 Размер:   2,51 GB  (
 Рейтинг:   4,1 (Голосов: 34)
 Поблагодарили:   107
 Проверка:   Оформление проверено модератором 10 Май 2012 09:27:23
Как cкачать  ·  Как раздать  ·  Правильно оформить  ·  Поднять ратио!  
юг71
Стаж: 8 лет 8 мес.
Сообщений: 416
Ratio: 10,618
Раздал: 160 GB
Откуда: с другой стороны монитора
russia.gif
комедия это врятли , тут не смеяться тут плакать нужно .
за раздачу спасибо )

_________________
Если ты споришь с идиотом , вероятней всего он делает тоже самое .
Agrimarchik
Стаж: 8 лет 8 мес.
Сообщений: 39
Ratio: 9,059
88.28%
как по мне так голимый трэшь... после первой сцены сразу вырубил, если уж хочется удовлетворить потребности то сами знаете куда идти.

Вывод: Не стоит тратить время.

_________________
горянин коля
Стаж: 9 лет 5 мес.
Сообщений: 21
Ratio: 9,019
100%
russia.gif
фильм бред сивой кобылы!!!!
matsky
Стаж: 11 лет 11 мес.
Сообщений: 21
Ratio: 5,656
60.28%
Откуда: Novosibirsk
russia.gif
Бред полный
Топик был перенесен из форума Зарубежные Фильмы (HD*Rip/LQ, DVDRip, SATRip, VHSRip) в форум Архив Видео

Причина переноса: Раздающего не было месяц или более
MAG3131
Показать сообщения:   
Начать новую тему   Ответить на тему    Торрент-трекер NNM-Club -> Архив торрентов -> Архив Видео Часовой пояс: GMT + 3
Страница 1 из 1