Классический форум-трекер
canvas not supported
Нас вместе: 4 095 195

Колдун 2 / The Yin-Yang Master 2 / Onmyoji 2 (2003) DVDRip


 
 
RSS
Начать новую тему   Ответить на тему    Торрент-трекер NNM-Club -> Зарубежное кино -> Азиатское кино (HD*Rip/LQ, DVDRip, SATRip, VHSRip)
Автор Сообщение
misdragon ®
Стаж: 13 лет
Сообщений: 8
Ratio: 140,002
Поблагодарили: 428
100%
russia.gif
Колдун 2 / The Yin-Yang Master 2 / Onmyoji 2 (2003) DVDRip
Год выпуска: 2003
Производство: Япония / Dentsu, Kadokawa Shoten Publishing Co. Ltd., Tohoku Shinsha Creates, Toho Company, Tohokashinsha Film Company Ltd., Tokyo Broadcasting System (TBS), Fellah Pictures, Mainichi Broadcasting System (MBS) K.K.
Жанр: Фэнтези, Боевик

Описание фильма:
Великий знаток инь-ян Абэ Но Сэймэй и отважный придворный Минамото Но Хиромаса на этот раз спасают столицу от гнева возрождённого бога Сусаноэ. Но даже мистических знаний и крепкой дружбы не хватило бы смельчакам, не разбуди они спящую богиню Аматэрасу — сестру Сусаноэ...

Режиссер: Йодзиро Такита
Актеры: Мансай Номура, Хидеаки Ито, Киити Накаи, Кёко Фукада, Эрико Имаи, Юко Котэгава, Хаято Итихара, Кацуя Койсо, Хиромитсу Сузуки, Кэндзи Ямаки

Продолжительность: 01:52:40
Качество видео: DVDRip
Перевод: Одноголосый закадровый, любительский



Дата мировой премьеры: 4 октября 2003

Видео: MPEG-4 XviD, 640x352 (16:9), 23.976 fps, ~1410 Kb/s (0.261 bit/pixel)
Аудио: AC-3, 48,0 KHz, 5.1 ch, 320 Kb/s, CBR | Russian
Код: выделить все
Общее
Полное имя                               : Koldun_2_(Onmyoj_2).avi
Формат                                   : AVI
Формат/Информация                        : Audio Video Interleave
Размер файла                             : 1,37 Гбайт
Продолжительность                        : 1 ч. 52 м.
Общий поток                              : 1737 Кбит/сек
Программа кодирования                    : VirtualDubMod 1.5.4.1 (build 2178/release)
Библиотека кодирования                   : VirtualDubMod build 2178/release

Видео
Идентификатор                            : 0
Формат                                   : MPEG-4 Visual
Профиль формата                          : Advanced Simple@L5
Параметр BVOP формата                    : Нет
Параметр QPel формата                    : Нет
Параметр GMC формата                     : Без точки перехода
Параметр матрицы формата                 : Выборочная
Идентификатор кодека                     : XVID
Идентификатор кодека/Подсказка           : XviD
Продолжительность                        : 1 ч. 52 м.
Битрейт                                  : 1410 Кбит/сек
Ширина                                   : 640 пикселей
Высота                                   : 352 пикселя
Соотношение сторон                       : 16:9
Частота кадров                           : 23,976 кадра/сек
Цветовое пространство                    : YUV
Субдискретизация насыщенности            : 4:2:0
Битовая глубина                          : 8 бит
Тип развёртки                            : Прогрессивная
Метод сжатия                             : С потерями
Бит/(Пиксели*Кадры)                      : 0.261
Размер потока                            : 1,11 Гбайт (81%)
Библиотека кодирования                   : XviD 1.2.0.dev47 (UTC 2006-11-01)

Аудио
Идентификатор                            : 1
Формат                                   : AC-3
Формат/Информация                        : Audio Coding 3
Расширение режима                        : CM (complete main)
Параметр Endianness формата              : Big
Идентификатор кодека                     : 2000
Продолжительность                        : 1 ч. 52 м.
Вид битрейта                             : Постоянный
Битрейт                                  : 320 Кбит/сек
Каналы                                   : 6 каналов
Расположение каналов                     : Front: L C R, Side: L R, LFE
Частота                                  : 48,0 КГц
Битовая глубина                          : 16 бит
Метод сжатия                             : С потерями
Размер потока                            : 258 Мбайт (18%)
Выравнивание                             : Разделение по промежуткам
Продолжительность промежутка             : 96  мс. (2,30 видеокадра)
Время предзагрузки промежутка            : 96  мс.
Скриншоты:



Время раздачи: 24/7 - круглосуточно (по возможности)
Реставрация от: Viсtоr
Koldun_2_(Onmyoj_2).avi.torrent
 Торрент: Платиновая раздача  Зарегистрирован
 
Скачать


 Зарегистрирован:   24 Ноя 2007 18:24:45
 Размер:   1,37 GB  (
 Рейтинг:   4,7 (Голосов: 22)
 Поблагодарили:   76
 Проверка:   Оформление проверено модератором 24 Ноя 2007 18:30:04
Как cкачать  ·  Как раздать  ·  Правильно оформить  ·  Поднять ратио!  

_________________
Матрица форева! - Воистину форева.
VELDA
Стаж: 12 лет 3 мес.
Сообщений: 8
Ratio: 3,367
Раздал: 189 GB
71.65%
Откуда: klaipeda
lithuania.gif
МОЖЕТ КТО ЗНАЕТЕ ГДЕ НАЙТИ КОЛДУН-1

_________________
Мы,всего-лиш,те кто мы есть,а в мире столько интересного...
Berimor
Стаж: 13 лет 4 мес.
Сообщений: 370
Ratio: 5,198
Поблагодарили: 5012
100%
russia.gif
Есть 1-й Колдун На ДВД. Правда качество - скорей ВХС Рип. Выкладывать?

_________________
Nonexistent
Стаж: 13 лет
Сообщений: 8
Ratio: 10,431
Раздал: 7,218 TB
Поблагодарили: 25
100%
russia.gif
VELDA писал(а):
МОЖЕТ КТО ЗНАЕТЕ ГДЕ НАЙТИ КОЛДУН-1

http://www.nnm-club.me/forum/viewtopic.php?t=9769
VELDA
Стаж: 12 лет 3 мес.
Сообщений: 8
Ratio: 3,367
Раздал: 189 GB
71.65%
Откуда: klaipeda
lithuania.gif
:roma2: Nonexistent спасибо за подсказку!

_________________
Мы,всего-лиш,те кто мы есть,а в мире столько интересного...
Показать сообщения:   
Начать новую тему   Ответить на тему    Торрент-трекер NNM-Club -> Зарубежное кино -> Азиатское кино (HD*Rip/LQ, DVDRip, SATRip, VHSRip) Часовой пояс: GMT + 3
Страница 1 из 1