Классический форум-трекер
canvas not supported
Нас вместе: 4 094 373

Перелом / Fracture (2007) [H.264/720p-LQ] BDRip


 
 
RSS
Начать новую тему   Ответить на тему    Торрент-трекер NNM-Club -> Зарубежное кино -> Зарубежные Фильмы (HD*Rip/LQ, DVDRip, SATRip, VHSRip)
Автор Сообщение
Gevolt ®
Update 100+
Стаж: 8 лет 4 мес.
Сообщений: 890
Ratio: 4877,064
Раздал: 196,5 TB
Поблагодарили: 94336
100%
Откуда: Нижний Новгород
Перелом / Fracture (2007) BDRip
Выпущено: США, Германия
Жанр: Детектив, Драма, Триллер

Режиссер: Грегори Хоблит
Актеры: Энтони Хопкинс, Райан Гослинг, Дэвид Стрэтэйрн, Розамунд Пайк, Эмбет Дэвидц, Билли Бёрк, Клифф Кёртис, Фиона Шоу, Боб Гантон, Джош Стэмберг

Описание:
Тед Кроуфорд жестоким образом убивает свою жену и спокойно ждет, когда полиция его арестует. Имея подписанное признание в руках, ассистент окружного прокурора Уилли Бичум верит, что суд признает подсудимого виновным. Так и случилось бы, но дело приняло новый оборот. Теперь Бичум должен бороться с хитроумным Кроуфордом в отчаянных поисках истины. Кроме того, ему необходимо найти ответ на главный вопрос: как Кроуфорду удается уйти от правосудия?



Продолжительность: 01:53:27
Перевод: Дублированный
Субтитры: Русские, английские
Вид субтитров: Вшитые (отключаемые)

Качество видео: BDRip
Видеокодек: MPEG-4 AVC/H.264
Битрейт видео: ~ 2332 kbps
Размер кадра: 1280x544
Аудио 1: Русский: 48 kHz; AC3; 448.00 kbps; 6 ch
Аудио 2: Англ-ий: 48 kHz; AC3; 448.00 kbps; 6 ch
General
Unique ID : 172861140239561894049787627747472863993 (0x820BD8391217A0EB8E2501BD4D4072F9)
Complete name : D:\uTorrent\Perelom.2007.[H.264.720p-LQ].BDRip.mkv
Format : Matroska
Format version : Version 2
File size : 2.56 GiB
Duration : 1h 53mn
Overall bit rate : 3 230 Kbps
Movie name : Fracture 2007
Encoded date : UTC 2010-10-25 21:34:21
Writing application : mkvmerge v3.4.0 ('Rapunzel') сборка от May 15 2010 09:38:20
Writing library : libebml v0.8.0 + libmatroska v0.9.0
Attachment : Yes

Video
ID : 1
Format : AVC
Format/Info : Advanced Video Codec
Format profile : High@L4.1
Format settings, CABAC : Yes
Format settings, ReFrames : 9 frames
Codec ID : V_MPEG4/ISO/AVC
Duration : 1h 53mn
Bit rate : 2 332 Kbps
Width : 1 280 pixels
Height : 544 pixels
Display aspect ratio : 2.35:1
Frame rate : 23.976 fps
Color space : YUV
Chroma subsampling : 4:2:0
Bit depth : 8 bits
Scan type : Progressive
Bits/(Pixel*Frame) : 0.140
Stream size : 1.80 GiB (70%)
Title : Fracture 2007
Writing library : x264 core 107 r1745 4785e8e
Encoding settings : cabac=1 / ref=9 / deblock=1:-2:-1 / analyse=0x3:0x133 / me=umh / subme=10 / psy=1 / psy_rd=1.05:0.03 / mixed_ref=1 / me_range=32 / chroma_me=1 / trellis=2 / 8x8dct=1 / cqm=0 / deadzone=21,11 / fast_pskip=0 / chroma_qp_offset=-3 / threads=6 / sliced_threads=0 / nr=0 / decimate=1 / interlaced=0 / constrained_intra=0 / bframes=8 / b_pyramid=2 / b_adapt=2 / b_bias=0 / direct=3 / weightb=1 / open_gop=0 / weightp=2 / keyint=250 / keyint_min=23 / scenecut=40 / intra_refresh=0 / rc_lookahead=70 / rc=2pass / mbtree=1 / bitrate=2332 / ratetol=1.0 / qcomp=0.70 / qpmin=10 / qpmax=51 / qpstep=4 / cplxblur=20.0 / qblur=0.5 / ip_ratio=1.40 / aq=2:1.00 / zones=156716,163221,q=30
Language : English
Default : No
Forced : No
Matrix coefficients : BT.709-5, BT.1361, IEC 61966-2-4 709, SMPTE RP177

Audio #1
ID : 2
Format : AC-3
Format/Info : Audio Coding 3
Mode extension : CM (complete main)
Codec ID : A_AC3
Duration : 1h 53mn
Bit rate mode : Constant
Bit rate : 448 Kbps
Channel(s) : 6 channels
Channel positions : Front: L C R, Side: L R, LFE
Sampling rate : 48.0 KHz
Bit depth : 16 bits
Compression mode : Lossy
Stream size : 364 MiB (14%)
Title : Dubljaz, 48 kHz, AC3, 3/2 (L,C,R,l,r) + LFE ch, ~ 448.00 kbps
Language : Russian
Default : Yes
Forced : No

Audio #2
ID : 3
Format : AC-3
Format/Info : Audio Coding 3
Mode extension : CM (complete main)
Codec ID : A_AC3
Duration : 1h 53mn
Bit rate mode : Constant
Bit rate : 448 Kbps
Channel(s) : 6 channels
Channel positions : Front: L C R, Side: L R, LFE
Sampling rate : 48.0 KHz
Bit depth : 16 bits
Compression mode : Lossy
Stream size : 364 MiB (14%)
Title : Original, 48 kHz, AC3, 3/2 (L,C,R,l,r) + LFE ch, ~ 448.00 kbps
Language : English
Default : No
Forced : No

Text #1
ID : 4
Format : UTF-8
Codec ID : S_TEXT/UTF8
Codec ID/Info : UTF-8 Plain Text
Language : Russian
Default : No
Forced : No

Text #2
ID : 5
Format : UTF-8
Codec ID : S_TEXT/UTF8
Codec ID/Info : UTF-8 Plain Text
Language : English
Default : No
Forced : No

Menu
00:00:00.000 : en:Opening Credits [7:05]
00:07:10.847 : en:The Crime [5:11]
00:12:22.741 : en:Negotiations [5:48]
00:18:11.548 : en:Hotshot [8:31]
00:26:42.891 : en:Mingling [5:57]
00:32:41.542 : en:Evidence [5:02]
00:37:43.678 : en:The Interview [5:54]
00:43:38.324 : en:Testimony [8:32]
00:52:11.710 : en:One More Chance [8:05]
01:00:17.280 : en:Investigation [6:44]
01:07:02.184 : en:White or Dark? [6:35]
01:13:37.955 : en:Waiting [5:53]
01:19:31.683 : en:Motion [8:55]
01:28:27.927 : en:Finality [10:43]
01:39:11.487 : en:Double Jeopardy [9:44]
01:48:56.488 : en:End Credits [4:29]

Скриншоты:


Время раздачи: С 10:00 до 24:00
[NNM-Club.ru]_Perelom.2007.[H.264.720p-LQ].BDRip.mkv.torrent
 Торрент: Платиновая раздача  Зарегистрирован
 
Скачать


Примагнититься
 Зарегистрирован:   17 Май 2012 22:05:06
 Размер:   2,56 GB  (
 Рейтинг:   4,8 (Голосов: 161)
 Поблагодарили:   805
 Проверка:   Оформление проверено модератором 17 Май 2012 22:36:01
Как cкачать  ·  Как раздать  ·  Правильно оформить  ·  Поднять ратио!  
igorml
Стаж: 8 лет 10 мес.
Сообщений: 216
Ratio: 3,254
100%
Откуда: Мозырь
belarus.gif
кино то что надо 4+
Gevolt ®
Update 100+
Стаж: 8 лет 4 мес.
Сообщений: 890
Ratio: 4877,064
Раздал: 196,5 TB
Поблагодарили: 94336
100%
Откуда: Нижний Новгород
Приятного просмотра!
000000
Стаж: 10 лет 8 мес.
Сообщений: 50
Ratio: 4,986
4.57%
ussr.gif
О жизни. Не для тех, кто смотрит Сумерки и Дом 2.
kristadze
Стаж: 8 лет 1 мес.
Сообщений: 378
Ratio: 5,734
100%
интересный и хороший фильм
velesweb
 
Стаж: 8 лет 5 мес.
Сообщений: 339
Ratio: 0,765
100%
Откуда: СПб
russia.gif
Просто шикарный фильм! Какие там 4 с плюсом - он заслуживает наивысшей оценки!

Всем приятного просмотра и спасибо за раздачу.
Kreator1974
Стаж: 7 лет 3 мес.
Сообщений: 650
Ratio: 7,7
100%
ukraine.gif
Классный фильм!
Vaabster
Стаж: 10 лет
Сообщений: 39
Ratio: 2,768
2.01%
Отличный фильм ) стоит посмотреть
Сергей Ежов
Стаж: 8 лет 10 мес.
Сообщений: 891
Ratio: 55,243
Раздал: 105,4 TB
100%
Откуда: Вольск
russia.gif
фильм хорош во всех отношениях!!!
здесь в двд качестве Перелом / Fracture (2007) DVDRip

_________________
Наше от нас не уйдёт. То, что ушло - было не наше
SDubrovin
Стаж: 9 лет 8 мес.
Сообщений: 22
Ratio: 10,053
44.44%
Отличный фильм, как его пропустил 9 лет назад? :)
S@D
Стаж: 10 лет 4 мес.
Сообщений: 246
Ratio: 8,255
15%
Фильм супер. Энтони Хопкинс, Райан Гослинг- великолепны, как впрочем и другие актеры. Спасибо.
Lingi
Стаж: 8 лет 1 мес.
Сообщений: 2131
Ratio: 24,279
100%
Согласна. Великолепный тандем. Отличная интрига. От экрана невозможно оторваться. Можно пересматривать и любоваться их игрой)))
arroy09
Стаж: 10 лет 4 мес.
Сообщений: 2
Ratio: 1,115
11.57%
ukraine.gif
Жаль, что не добавлена альтернативная концовка. Кому интересно, найдите в нете.
Lingi
Стаж: 8 лет 1 мес.
Сообщений: 2131
Ratio: 24,279
100%
arroy09 писал(а): Перейти к сообщению
Жаль, что не добавлена альтернативная концовка. Кому интересно, найдите в нете.
искала в ютубе, но не нашла.
Если знаете, где ее можно посмотреть, киньте пожалуйста ссылку
Показать сообщения:   
Начать новую тему   Ответить на тему    Торрент-трекер NNM-Club -> Зарубежное кино -> Зарубежные Фильмы (HD*Rip/LQ, DVDRip, SATRip, VHSRip) Часовой пояс: GMT + 3
Страница 1 из 1