Классический форум-трекер
canvas not supported
Нас вместе: 4 093 164

Подводная лодка / Das Boot (1981) DVDRip [Director's Cut]


Страницы:  1, 2  След. 
 
RSS
Начать новую тему   Ответить на тему    Торрент-трекер NNM-Club -> Классика кино и Старые фильмы до 90-х -> Старые Зарубежные Фильмы (HD*Rip/LQ, DVDRip, SATRip, VHSRip)
Автор Сообщение
RMS ®
Стаж: 12 лет 10 мес.
Сообщений: 16
Ratio: 2,783
Поблагодарили: 160
4.17%
Подводная лодка / Das Boot (1981) DVDRip
Год выпуска: 1981
Жанр: Боевик, Драма, Приключения, Военный, История
Производство: Германия (ФРГ)
Описание фильма:
Осень 1941 года. Немецкая подводная лодка отправляется в Атлантический океан, место противостояния германского и английского флотов. Жизнь по строгому распорядку, учебные тревоги, воспоминания о семьях и любимых девушках, соленые мужские шуточки… Скоро всё это закончится. Потому что впереди — ад и никакой надежды на спасение…
Режиссер: Вольфганг Петерсен
Актеры: Юрген Прохнов, Херберт Грёнемайер, Клаус Веннеманн, Хабертус Бенгш, Отто Зандер, Гюнтер Лампрехт, Мартин Май, Хайнц Хёниг, Уве Оксенкнехт, Клод-Оливер Рудольф, Йоахим Бернхард, Оливер Штрицель, Конрад Беккер, Луц Шнелль, Ян Федер, Ральф Рихтер, Эрвин Ледер, Мартин Хемме, Рита Кадиллак, Мартин Земмельрогге, Бернд Таубер, Томас Боксхаммер, Роджер Барт, Гюнтер Франке, Кристиан Бендомир, Норберт Гронволд, Альберт Крамл, Жан-Клод Хоффманн, Питер Патенис, Арно Крал, Кристиан Сейполт
Продолжительность: 01:38:48 + 01:41:16
Качество: DVDRip
Перевод: Многоголосый закадровый
Ограничения: 16+

Дата мировой премьеры: 17 сентября 1981
Релиз на DVD: 15 октября 2009, «Cinema Prestige»
Видеокодек: DivX3
Битрейт видео: ~859 Кбит/с
Размер кадра: 512 x 288
Аудио: MP3, 2 ch, 98 Кбит/с
Код: выделить все

General
Complete name                    : D:\DasBoot[nnm-club.me]\das_boot_1.avi
Format                           : AVI
Format/Info                      : Audio Video Interleave
File size                        : 686 MiB
Duration                         : 1h 38mn
Overall bit rate                 : 970 Kbps
Writing application              : Nandub v1.0rc2
Writing library                  : Nandub build 1853/release

Video
ID                               : 0
Format                           : MPEG-4 Visual
Codec ID                         : DIV3
Codec ID/Hint                    : DivX 3 Low
Duration                         : 1h 38mn
Bit rate                         : 859 Kbps
Width                            : 512 pixels
Height                           : 288 pixels
Display aspect ratio             : 16:9
Frame rate                       : 25.000 fps
Color space                      : YUV
Chroma subsampling               : 4:2:0
Bit depth                        : 8 bits
Compression mode                 : Lossy
Bits/(Pixel*Frame)               : 0.233
Stream size                      : 607 MiB (89%)

Audio
ID                               : 1
Format                           : MPEG Audio
Format version                   : Version 1
Format profile                   : Layer 3
Mode                             : Joint stereo
Mode extension                   : MS Stereo
Codec ID                         : 55
Codec ID/Hint                    : MP3
Duration                         : 1h 38mn
Bit rate mode                    : Variable
Bit rate                         : 98.4 Kbps
Channel(s)                       : 2 channels
Sampling rate                    : 48.0 KHz
Compression mode                 : Lossy
Delay relative to video          : 21ms
Stream size                      : 69.5 MiB (10%)
Alignment                        : Aligned on interleaves
Interleave, duration             : 24 ms (0.60 video frame)
Interleave, preload duration     : 459 ms

Код: выделить все
General
Complete name                    : D:\DasBoot[nnm-club.me]\das_boot_2.avi
Format                           : AVI
Format/Info                      : Audio Video Interleave
File size                        : 631 MiB
Duration                         : 1h 41mn
Overall bit rate                 : 871 Kbps
Writing application              : Nandub v1.0rc2
Writing library                  : Nandub build 1853/release

Video
ID                               : 0
Format                           : MPEG-4 Visual
Codec ID                         : DIV3
Codec ID/Hint                    : DivX 3 Low
Duration                         : 1h 41mn
Bit rate                         : 768 Kbps
Width                            : 512 pixels
Height                           : 288 pixels
Display aspect ratio             : 16:9
Frame rate                       : 25.000 fps
Color space                      : YUV
Chroma subsampling               : 4:2:0
Bit depth                        : 8 bits
Compression mode                 : Lossy
Bits/(Pixel*Frame)               : 0.208
Stream size                      : 556 MiB (88%)

Audio
ID                               : 1
Format                           : MPEG Audio
Format version                   : Version 1
Format profile                   : Layer 3
Mode                             : Joint stereo
Mode extension                   : MS Stereo
Codec ID                         : 55
Codec ID/Hint                    : MP3
Duration                         : 1h 40mn
Bit rate mode                    : Variable
Bit rate                         : 90.4 Kbps
Channel(s)                       : 2 channels
Sampling rate                    : 44.1 KHz
Compression mode                 : Lossy
Delay relative to video          : 23ms
Stream size                      : 65.1 MiB (10%)
Alignment                        : Aligned on interleaves
Interleave, duration             : 26 ms (0.66 video frame)
Interleave, preload duration     : 302 ms

Скриншоты:



Время раздачи: С 18:00 до 00:00 (GMT)
Подводная лодка / Das Boot на NNM-Club
DasBoot[nnm-club.ru].torrent
 Торрент: Платиновая раздача  Зарегистрирован
 
Скачать


 Зарегистрирован:   27 Ноя 2007 22:01:13
 Размер:   1,29 GB  (
 Рейтинг:   4,8 (Голосов: 36)
 Поблагодарили:   160
 Проверка:   Оформление проверено модератором 27 Ноя 2007 22:11:17
Как cкачать  ·  Как раздать  ·  Правильно оформить  ·  Поднять ратио!  
futura3000
Uploader 100+
Стаж: 12 лет 4 мес.
Сообщений: 5679
Ratio: 328,447
Поблагодарили: 20747
100%
Фильм шикарный.
DionnissS
Стаж: 13 лет
Сообщений: 121
Ratio: 71,096
Поблагодарили: 481
100%
russia.gif
тему из него бы кто выложил.
RMS ®
Стаж: 12 лет 10 мес.
Сообщений: 16
Ratio: 2,783
Поблагодарили: 160
4.17%
Есть у меня полный саундтрэк. И, более известная, обработка группы "U-96". Разберусь с раздачей фильмы, может выложу. Если захочется опять с такой опой, как раздача здесь, связываться.
Hanf
Стаж: 12 лет 10 мес.
Сообщений: 1084
Ratio: 1,893
Поблагодарили: 21454
100%
ОСТ с U96 уже есть: http://www.nnm-club.me/forum/viewtopic.php?t=15104

Добавлено спустя 2 минуты 53 секунды:

Цитата:
Продолжительность: 03.20.00
Действительно 3,5 часа?
futura3000
Uploader 100+
Стаж: 12 лет 4 мес.
Сообщений: 5679
Ratio: 328,447
Поблагодарили: 20747
100%
2Hanf:
Это похоже режисёрская версия.

Цитата:
1981г.- для кинопроката -150 минут
1997г.- режисерская версия - 216 минут
2003г.- телевизионная версия для показа в США - 293 минуты

У меня вопрос к релизеру другой - перевод закадровый, а на основании какой звуковой дорожки он был сделан? В смысле какой язык слышен позади - английский или немецкий?
RMS ®
Стаж: 12 лет 10 мес.
Сообщений: 16
Ratio: 2,783
Поблагодарили: 160
4.17%
Да, это "Оригингальная, режисёрская версия фильма", как указанно мною в описании. Не сам придумал, об этом говорится в начале фильма.
Время взял простым сложением хронометража 2-х частей.
Позади слышен оригинал, немецкий (что несомненно добавляет удовольствия от просмотра ;)). И, на мой взгляд, довольно неплохой баланс между звуком перевода и оригиналом.
futura3000
Uploader 100+
Стаж: 12 лет 4 мес.
Сообщений: 5679
Ratio: 328,447
Поблагодарили: 20747
100%
Спасибо.
Я уже нашел себе четырехдисковую коллекционную версию :-)
oldnubik
Стаж: 12 лет 9 мес.
Сообщений: 63
Ratio: 12,684
Поблагодарили: 614
100%
Откуда: из Глубины
russia.gif
смотрел - отличный фильм
futura3000
Uploader 100+
Стаж: 12 лет 4 мес.
Сообщений: 5679
Ratio: 328,447
Поблагодарили: 20747
100%
RMS писал(а):
Хотите на 6 дисков сделаю? :) Шутка.


Меня интересует в первую очередь оригинальная звуковая дорожка
mt12
Стаж: 13 лет 4 мес.
Сообщений: 126
Ratio: 2,721
100%
Откуда: Белград
pirates.png
"Оригингальная" - это звучит!
Чучундра_101
Стаж: 12 лет 3 мес.
Сообщений: 209
Ratio: 82,877
Поблагодарили: 425
100%
pirates.png
к раздаче подключаться?а то чот не раздает никто как смотрю...

_________________
А что мне надо?-Да просто свет в оконце!
А что мне снится?-Что кончилась война!
Куда иду я?-Туда где светит моё Солнце!
Вот только братцы...Добраться б дотемна!!!
/life
Сталкер
Стаж: 12 лет 6 мес.
Сообщений: 3786
Ratio: 20,661
Поблагодарили: 9803
100%
Откуда: Папуа - Новая Гвинея
roody.gif
Чучундра_101
Конечно надо присоеденяться .В таких случаях .когда много личеров и нет никого ,присоеденяйтесь не задумываясь
futura3000
Uploader 100+
Стаж: 12 лет 4 мес.
Сообщений: 5679
Ratio: 328,447
Поблагодарили: 20747
100%
2/life: Рад бы тоже помочь, да удалил у себя по крайней мере очень похожий DVD Rip :(

Буду рипать в выходные если все срастется фанатскую версию :поклоняется:
/life
Сталкер
Стаж: 12 лет 6 мес.
Сообщений: 3786
Ratio: 20,661
Поблагодарили: 9803
100%
Откуда: Папуа - Новая Гвинея
roody.gif
futura2000
Цитата:
Буду рипать в выходные если все срастется фанатскую версию

удачи ... главное не перемудрить ..
Показать сообщения:   
Начать новую тему   Ответить на тему    Торрент-трекер NNM-Club -> Классика кино и Старые фильмы до 90-х -> Старые Зарубежные Фильмы (HD*Rip/LQ, DVDRip, SATRip, VHSRip) Часовой пояс: GMT + 3
Страницы:  1, 2  След.
Страница 1 из 2