Классический форум-трекер
canvas not supported
Нас вместе: 4 104 604

Студентка / L'Etudiante (1988) [H.264] DVDRip


 
 
RSS
Начать новую тему   Ответить на тему    Торрент-трекер NNM-Club -> Классика кино и Старые фильмы до 90-х -> Старые Зарубежные Фильмы (HD*Rip/LQ, DVDRip, SATRip, VHSRip)
Автор Сообщение
fictionss ®
Стаж: 9 лет 9 мес.
Сообщений: 108
Ratio: 3,387
Поблагодарили: 3363
100%
ussr.gif
Студентка / L'Etudiante (1988) [H.264] DVDRip
Русское название: Студентка
Оригинальное название: L'Etudiante
Год выпуска: 1988
Жанр: Комедия, Мелодрама

Описание фильма:
Это история любви богемного музыканта и одинокой интеллектуалки, самостоятельно решающей все проблемы , полной идей о любви, жизни и мире.
Валентине исполнился двадцать один год, она подрабатывает учительницей и готовится к важным экзаменам в университет. В это время она встречает Неда (Винсент Линдон), музыканта, который надеется когда-нибудь стать композитором. Несмотря на то, что они оба работают в разное время и с трудом находят время для встреч, между ними возникает пылкая связь. И на экзамене в Сорбонне Валентина анализирует свои отношения с Недом при рассмотрении сухой диссертации по мольеровскому "Мизантропу".

Режиссер: Клод Пиното
Актеры: Софи Марсо, Винсен Линдон, Элизабет Витали, Жан-Клод Леге, Елена Помпей, Роберто Эттиэс, Брижитт Шамаранд, Кристиан Перейра, Беппе Черличи, Натали Манн, Джанин Сушон, Жаклин Ноэль, Марк-Андре Брунет, Изабель Кобер, Андре Шазель, Гийом Кориа, Жилль Гастон-Дрейфус, Бенуа Гурли, Марк Инноченти

Продолжительность: 01:39:18
Перевод : русский двухголосный закадровый (ТК "СТС"), русский двухголосный закадровый ("Союз Видео")
Субтитры: Отсутствуют



Дата мировой премьеры: 05.10.1988
Дата выхода DVD релиза: 09.10.2008

Видеокодек: MPEG-4 AVC/H.264
Битрейт видео: ~1522 kb/s
Размер кадра: 720 x 400
Качество видео: DVDRip
Битрейт аудио 1: AC3, 48.0 KHz, 2 ch, 192 kb/s VBR (Русский двухголосный закадровый)
Битрейт аудио 2: AC3, 48.0 KHz, 2 ch, 192 kb/s VBR (Французский - оригинальный)
Битрейт аудио 3: AC3, 48.0 KHz, 2 ch, 192 kb/s VBR (Русский двухголосный закадровый)
Общее
Уникальный идентификатор: 247448514805272274703500662165900732209 (0xBA28D9B6287A0ECC925CE0FC61D9A731)
Полное имя: H:\Видео-закачка\Иностранные\Французские\L'Etudiante.(1988)-[Ru&Fr].DVDRip.AVC.mkv
Формат: Matroska (MKV)
Версия формата: Version 1
Размер файла: 1,46 Гбайт
Продолжительность: 1 ч. 39 м.
Общий поток: 2102 Кбит/сек
Дата кодирования: UTC 2009-03-03 04:09:38
Программа кодирования: mkvmerge v2.4.2 ('Oh My God') built on Jan 18 2009 17:30:28
Библиотека кодирования: libebml v0.7.7 + libmatroska v0.8.1

Видео
Идентификатор: 1
Формат: AVC
Формат/Информация: Advanced Video Codec
Профиль формата: High@L5.1
Параметр CABAC формата: Да
Параметр ReFrames формата: 8 кадров
Идентификатор кодека: V_MPEG4/ISO/AVC
Продолжительность: 1 ч. 39 м.
Битрейт: 1522 Кбит/сек
Ширина: 720 пикселей
Высота: 400 пикселей
Соотношение сторон: 16:9
Частота кадров: 25,000 кадров/сек
Цветовое пространство: YUV
Субдискретизация насыщенности: 4:2:0
Битовая глубина: 8 бит
Тип развёртки: Прогрессивная
Бит/(Пиксели*Кадры): 0.211
Размер потока: 1,03 Гбайт (71%)
Библиотека кодирования: x264 core 66 r1115M 11863ac

Аудио #1
Идентификатор: 2
Формат: AC-3
Формат/Информация: Audio Coding 3
Расширение режима: CM (complete main)
Параметр Endianness формата: Big
Идентификатор кодека: A_AC3
Продолжительность: 1 ч. 39 м.
Вид битрейта: Постоянный
Битрейт: 192 Кбит/сек
Каналы: 2 канала
Расположение каналов: Front: L R
Частота: 48,0 КГц
Битовая глубина: 16 бит
Метод сжатия: С потерями
Размер потока: 136 Мбайт (9%)
Заголовок: Русский (двухголосый ТК "СТС")
Язык: Russian

Аудио #2
Идентификатор: 3
Формат: AC-3
Формат/Информация: Audio Coding 3
Расширение режима: CM (complete main)
Параметр Endianness формата: Big
Идентификатор кодека: A_AC3
Продолжительность: 1 ч. 39 м.
Вид битрейта: Постоянный
Битрейт: 192 Кбит/сек
Каналы: 2 канала
Расположение каналов: Front: L R
Частота: 48,0 КГц
Битовая глубина: 16 бит
Метод сжатия: С потерями
Размер потока: 136 Мбайт (9%)
Заголовок: Французский (оригинал)

Аудио #3
Идентификатор: 4
Формат: AC-3
Формат/Информация: Audio Coding 3
Расширение режима: CM (complete main)
Параметр Endianness формата: Big
Идентификатор кодека: A_AC3
Продолжительность: 1 ч. 39 м.
Вид битрейта: Постоянный
Битрейт: 192 Кбит/сек
Каналы: 2 канала
Расположение каналов: Front: L R
Частота: 48,0 КГц
Битовая глубина: 16 бит
Метод сжатия: С потерями
Размер потока: 136 Мбайт (9%)
Заголовок: Русский (двухголосый "Союз Видео")
Язык: Russian
Скриншоты:


Время раздачи: С 21:00 до 06:00 (первые 4 дня)
[NNM-Club.ru]_L'Etudiante.(1988)-[Ru&Fr].DVDRip.AVC.mkv.torrent
 Торрент: Платиновая раздача  Зарегистрирован
 
Скачать


Примагнититься
 Зарегистрирован:   20 Май 2012 12:27:53
 Размер:   1,46 GB  (
 Рейтинг:   4,7 (Голосов: 21)
 Поблагодарили:   87
 Проверка:   Оформление проверено модератором 20 Май 2012 14:46:14
Как cкачать  ·  Как раздать  ·  Правильно оформить  ·  Поднять ратио!  
Irafe
Стаж: 6 лет 5 мес.
Сообщений: 5
Ratio: 2,91
Раздал: 18,7 GB
13.11%
ukraine.gif
нравятся все фильмы с участием Софи Марсо
Показать сообщения:   
Начать новую тему   Ответить на тему    Торрент-трекер NNM-Club -> Классика кино и Старые фильмы до 90-х -> Старые Зарубежные Фильмы (HD*Rip/LQ, DVDRip, SATRip, VHSRip) Часовой пояс: GMT + 3
Страница 1 из 1