Классический форум-трекер
canvas not supported
Нас вместе: 4 103 307

[FR] Студентка / L'Etudiante (1988) DVDRip


 
 
RSS
Начать новую тему   Ответить на тему    Торрент-трекер NNM-Club -> Архив торрентов -> Архив Видео
Автор Сообщение
fictionss ®
Стаж: 9 лет 9 мес.
Сообщений: 108
Ratio: 3,387
Поблагодарили: 3363
100%
ussr.gif
[FR] Студентка / L'Etudiante (1988) DVDRip
Русское название: Студентка
Оригинальное название: L'Etudiante
Год выпуска: 1988
Жанр: Комедия, Мелодрама

Описание фильма:
Это история любви богемного музыканта и одинокой интеллектуалки, самостоятельно решающей все проблемы , полной идей о любви, жизни и мире.
Валентине исполнился двадцать один год, она подрабатывает учительницей и готовится к важным экзаменам в университет. В это время она встречает Неда (Винсент Линдон), музыканта, который надеется когда-нибудь стать композитором. Несмотря на то, что они оба работают в разное время и с трудом находят время для встреч, между ними возникает пылкая связь. И на экзамене в Сорбонне Валентина анализирует свои отношения с Недом при рассмотрении сухой диссертации по мольеровскому "Мизантропу".

Режиссер: Клод Пиното
Актеры: Софи Марсо, Винсен Линдон, Элизабет Витали, Жан-Клод Леге, Елена Помпей, Роберто Эттиэс, Брижитт Шамаранд, Кристиан Перейра, Беппе Черличи, Натали Манн, Джанин Сушон, Жаклин Ноэль, Марк-Андре Брунет, Изабель Кобер, Андре Шазель, Гийом Кориа, Жилль Гастон-Дрейфус, Бенуа Гурли, Марк Инноченти

Продолжительность: 01:39:40
Перевод: Отсутствует
Язык: Французский



Дата мировой премьеры: 05.10.1988

Видеокодек: Xvid
Битрейт видео: ~1200 kb/s
Размер кадра: 640 x 368
Качество видео: DVDRip
Аудиокодек: MP3
Битрейт аудио: 128 kb/s CBR
Общее
Полное имя: H:\Видео-закачка\Иностранные\Французские\L'Etudiante 1988\L'Etudiante 1988.avi
Формат: AVI
Формат/Информация: Audio Video Interleave
Размер файла: 956 Мбайт
Продолжительность: 1 ч. 39 м.
Общий поток: 1340 Кбит/сек
Программа кодирования: MEncoder SVN-r22963
Библиотека кодирования: MPlayer

Видео
Идентификатор: 0
Формат: MPEG-4 Visual
Профиль формата: Simple@L1
Параметр BVOP формата: Нет
Параметр QPel формата: Нет
Параметр GMC формата: Без точки перехода
Параметр матрицы формата: Default (H.263)
Идентификатор кодека: XVID
Идентификатор кодека/Подсказка: XviD
Продолжительность: 1 ч. 39 м.
Битрейт: 1200 Кбит/сек
Ширина: 640 пикселей
Высота: 368 пикселей
Соотношение сторон: 1,739
Частота кадров: 25,000 кадров/сек
Цветовое пространство: YUV
Субдискретизация насыщенности: 4:2:0
Битовая глубина: 8 бит
Тип развёртки: Прогрессивная
Метод сжатия: С потерями
Бит/(Пиксели*Кадры): 0.204
Размер потока: 856 Мбайт (90%)
Библиотека кодирования: Lavc51.40.2

Аудио
Идентификатор: 1
Формат: MPEG Audio
Версия формата: Version 1
Профиль формата: Layer 3
Идентификатор кодека: 55
Идентификатор кодека/Подсказка: MP3
Продолжительность: 1 ч. 39 м.
Вид битрейта: Постоянный
Битрейт: 128 Кбит/сек
Каналы: 2 канала
Частота: 44,1 КГц
Метод сжатия: С потерями
Размер потока: 91,3 Мбайт (10%)
Выравнивание: Соединение по промежуткам
Продолжительность промежутка: 26 мс. (0,65 видеокадр)
Время предзагрузки промежутка: 522 мс.
Скриншоты:


Время раздачи: С 21:00 до 06:00 (первые 4 дня)
[NNM-Club.ru]_L'Etudiante 1988 [Fr].torrent.avi.torrent
 Торрент: Платиновая раздача  Зарегистрирован
 
Скачать


Примагнититься
 Зарегистрирован:   20 Май 2012 15:39:48
 Размер:   956 MB  (
 Рейтинг:    (Голосов: 8)
 Поблагодарили:   20
 Проверка:   Оформление проверено модератором 20 Май 2012 16:36:52
Как cкачать  ·  Как раздать  ·  Правильно оформить  ·  Поднять ратио!  
Топик был перенесен из форума Фильмы в оригинале в форум Архив Видео

Причина переноса: сида не было более месяца.
Alex_shadow
Показать сообщения:   
Начать новую тему   Ответить на тему    Торрент-трекер NNM-Club -> Архив торрентов -> Архив Видео Часовой пояс: GMT + 3
Страница 1 из 1