Классический форум-трекер
canvas not supported
Нас вместе: 4 083 731
Платим за отзывы

Тор: Легенда викингов / Hetjur Valhallar - Por (2011) HDRip


 
 
RSS
Начать новую тему   Ответить на тему    Торрент-трекер NNM-Club -> Архив торрентов -> Архив Мультфильмов
Автор Сообщение
art-61 ®
Стаж: 8 лет 6 мес.
Сообщений: 1100
Ratio: 137,857
Поблагодарили: 141299
100%
Откуда: Санкт-Петербург
russia.gif
Тор: Легенда викингов / Hetjur Valhallar - Por (2011) HDRip
Русское название: Тор: Легенда викингов
Оригинальное название: Hetjur Valhallar - Por
Год выпуска: 2011
Страна: Германия, Исландия, Ирландия
Выпущено: CAOZ hf., Magma Films Ltd. (I), Ulysses
Жанр: Mультфильм, Комедия, Приключения, Семейный

Описание:
Самоуверенный подросток, в арсенале которого находятся магическое оружие, присоединяется к борьбе против злой королевы и ее армии великанов.

Режиссер: Оускар Йоунассон, Тоби Генкель, Гуннар Карлссон
Актеры: Джастин Грегг, Пол Тайлак, Николя Кохлан, Лиз Ллойд, Алан Стэнфорд, Эммет Скэнлэн, Дж. Дрю Лукас, Мэри Мюррэй, Леса Турман, Гари Хецлер

Продолжительность: 01:23:00
Перевод: Дублированный (лицензия)
Субтитры: Отсутствуют

Дата мировой премьеры: 14 октября 2011
Дата российской премьеры: 22 марта 2012, «Централ Партнершип»
Дата выхода DVD релиза: 26 апреля 2012, «Флагман-Трейд»
Дата выхода Blu-Ray релиза: 15 мая 2012, «Флагман-Трейд»



Видеокодек: Xvid
Битрейт видео: ~1904 Kb/s
Размер кадра: 720x304
Качество видео: HDRip
Аудиокодек: AC3, 6 ch
Битрейт аудио: 448 Kb/s
Общее
Полное имя : I:\Tor.Legenda.vikingov.2011.D.HDRip.avi
Формат : AVI
Формат/Информация : Audio Video Interleave
Размер файла : 1,37 Гбайт
Продолжительность : 1 ч. 23 м.
Общий поток : 2362 Кбит/сек
Программа кодирования : VirtualDubMod 1.5.10.3 | www.virtualdub-fr.org || (build 2550/release)
Библиотека кодирования : VirtualDubMod build 2550/release

Видео
Идентификатор : 0
Формат : MPEG-4 Visual
Профиль формата : Advanced Simple@L5
Параметр BVOP формата : 2
Параметр QPel формата : Нет
Параметр GMC формата : Без точки перехода
Параметр матрицы формата : Выборочная
Идентификатор кодека : XVID
Идентификатор кодека/Подсказка : XviD
Продолжительность : 1 ч. 23 м.
Битрейт : 1905 Кбит/сек
Ширина : 720 пикселей
Высота : 304 пикселя
Соотношение сторон : 2,35:1
Частота кадров : 23,976 кадра/сек
Цветовое пространство : YUV
Субдискретизация насыщенности : 4:2:0
Битовая глубина : 8 бит
Тип развёртки : Прогрессивная
Метод сжатия : С потерями
Бит/(Пиксели*Кадры) : 0.363
Размер потока : 1,10 Гбайт (81%)
Библиотека кодирования : XviD 1.2.1 (UTC 2008-12-04)

Аудио
Идентификатор : 1
Формат : AC-3
Формат/Информация : Audio Coding 3
Расширение режима : CM (complete main)
Параметр Endianness формата : Big
Идентификатор кодека : 2000
Продолжительность : 1 ч. 23 м.
Вид битрейта : Постоянный
Битрейт : 448 Кбит/сек
Каналы : 6 каналов
Расположение каналов : Front: L C R, Side: L R, LFE
Частота : 48,0 КГц
Битовая глубина : 16 бит
Метод сжатия : С потерями
Размер потока : 266 Мбайт (19%)
Выравнивание : Разделение по промежуткам
Продолжительность промежутка : 42 мс. (1,00 видеокадр)
Время предзагрузки промежутка : 500 мс.
Скриншоты:



Время раздачи: 24/7 по возможности
[NNM-Club.ru]_Tor.Legenda.vikingov.2011.D.HDRip.avi.torrent
 Торрент: Золотая раздача  Зарегистрирован
 
Зарегистрируйтесь и скачайте торрент!
14 KB
Free Leech
Примагнититься
 Зарегистрирован:   21 Май 2012 20:08:55
 Размер:   1,37 GB  (
 Рейтинг:   4,7 (Голосов: 31)
 Поблагодарили:   155
 Проверка:   Внимание! Оформление не проверено модератором!
Как cкачать  ·  Как раздать  ·  Правильно оформить  ·  Поднять ратио!  
Loading...
starklad
RG Всё лучшее - детям!
Реставратор Детского, Uploader 100+
 
Стаж: 8 лет
Сообщений: 7928
Ratio: 12K
Поблагодарили: 199282
100%
Откуда: родом из СССР
ussr.gif
art-61
я не модератор , но советую перезалить обложку и скрины на разрешенные хостинги (фастпик - запрещен в детском разделе) - все равно заставят, и добавьте ссылки на другие раздачи с этим мультиком. удачи :подмигивание:
art-61 ®
Стаж: 8 лет 6 мес.
Сообщений: 1100
Ratio: 137,857
Поблагодарили: 141299
100%
Откуда: Санкт-Петербург
russia.gif
starklad писал(а): Перейти к сообщению
art-61
я не модератор , но советую перезалить обложку и скрины на разрешенные хостинги (фастпик - запрещен в детском разделе) - все равно заставят, и добавьте ссылки на другие раздачи с этим мультиком. удачи :подмигивание:


Спасибо, поправил. :приветствую:

_________________
В этом безумном мире возможно всё!
almikl
Куратор Детского.
Модератор Видео.
RG Всё лучшее - детям!
Uploader 500+
 
Стаж: 12 лет 5 мес.
Сообщений: 4783
Ratio: 348,138
Поблагодарили: 108657
100%
Откуда: Дааалекое Подмосковье
russia.gif
радикал запрещен для обложек (только для скриншотов).
разрешен полностью http://imageshack.us/ и http://imageban.ru/
Код:

[color=#FF80FF][size=18]Все раздачи [url=http://nnmclub.to/?q=%D2%EE%F0%3A+%CB%E5%E3%E5%ED%E4%E0+%E2%E8%EA%E8%ED%E3%EE%E2&w=title]Тор: Легенда викингов[/url] на NNM-CLUB[/size][/color]
batonchik
Куратор Видео
RG Releasers
Котоаплоадер 6000+
 
Стаж: 11 лет 9 мес.
Сообщений: 25078
Ratio: 91K
Раздал: 6,5488 PB
Поблагодарили: 1241039
100%
Откуда: из лесу
ussr.gif
сделайте скриншоты сравнения с этим релизом Тор: Легенда викингов / Legends of Valhalla: Thor (2011) DVDRip

Добавлено спустя 24 минуты 49 секунд:

пока считаю повтором.
Топик был перенесен из форума Зарубежные Мультфильмы (HD*Rip/LQ, DVDRip, SATRip, VHSRip) в форум Архив Мультфильмов


batonchik
art-61 ®
Стаж: 8 лет 6 мес.
Сообщений: 1100
Ratio: 137,857
Поблагодарили: 141299
100%
Откуда: Санкт-Петербург
russia.gif
batonchik писал(а): Перейти к сообщению
сделайте скриншоты сравнения с этим релизом Тор: Легенда викингов / Legends of Valhalla: Thor (2011) DVDRip

Добавлено спустя 24 минуты 49 секунд:

пока считаю повтором.


Сравните!

_________________
В этом безумном мире возможно всё!
Показать сообщения:   
Начать новую тему   Ответить на тему    Торрент-трекер NNM-Club -> Архив торрентов -> Архив Мультфильмов Часовой пояс: GMT + 3
Страница 1 из 1