Классический форум-трекер
canvas not supported
Нас вместе: 4 083 526
Платим за отзывы

Полярный экспресс / The Polar Express (2004) BDRip


 
 
RSS
Начать новую тему   Ответить на тему    Торрент-трекер NNM-Club -> Мультфильмы -> Зарубежные Мультфильмы (HD*Rip/LQ, DVDRip, SATRip, VHSRip)
Автор Сообщение
andr1525 ®
Покровитель талантов
 
Стаж: 9 лет 1 мес.
Сообщений: 2139
Ratio: 5,665
Поблагодарили: 167698
100%
russia.gif
Полярный экспресс / The Polar Express (2004) BDRip
«Journey Beyond Your Imagination»

Русское название: Полярный экспресс
Оригинальное название: The Polar Express
Год выпуска: 2004
Производство: Warner Bros. / Castle Rock Entertainment - США
Жанр: Мультфильм, Фэнтези, Приключения, Семейный
Перевод: Профессиональный (полное дублирование) [Лицензия]
Язык субтитров: Русский (Forced, Full), Английский
Вид субтитров: Отдельным файлом

Дата мировой премьеры: 21 октября 2004, ...
Дата российской премьеры: 23 декабря 2004, «Каро-Премьер»
Дата выхода DVD релиза: 17 ноября 2009, «Юниверсал Пикчерс Рус», ...
Дата выхода Blu-Ray релиза: 17 ноября 2009, «Юниверсал Пикчерс Рус», ...

Режиссер: Роберт Земекис
Продюсер: Стивен Дж. Бойд, Крис Ван Оллсбёрг, Роберт Земекис
Актеры: Эндрю Эблсон, Дебби Ли Кэррингтон, Том Хэнкс, Эдди Дизен, Джош Хатчерсон, Джимми "Джекс" Пинчак, Шантель Валдивьесо, Майкл Джетер, Хэйден МакФарлэнд, Питер Сколари, Крис Коппола

Описание фильма:
Экранизация одноименной детской книги о необыкновенном путешествии маленького мальчика на волшебном поезде «Полярный экспресс» на Северный полюс к Санта-Клаусу в канун Рождества…



Продолжительность:
Качество видео: BDRip

Видеокодек: Xvid
Битрейт видео: ~2220 Кбит/сек
Размер кадра: 720 x 304
Аудио 1: AC3 5.1, 48,0 КГц, ~448 Кбит/сек - Русский |Дубляж, R5|
Аудио 2: AC3 5.1, 48,0 КГц, ~448 Кбит/сек - Русский |Многоголосый, закадровый|
Аудио 3: AC3 5.1, 48,0 КГц, ~448 Кбит/сек - Русский |Одноголосый, В.Королёв| отдельно
Аудио 4: AC3 5.1, 48,0 КГц, ~448 Кбит/сек - Английский |Оригинал| отдельно
Общее
Полное имя : D:\The.Polar.Express.2004.BDrip\The.Polar.Express.2004.BDrip.avi
Формат : AVI
Формат/Информация : Audio Video Interleave
Профиль формата : OpenDML
Размер файла : 2,18 Гбайт
Продолжительность : 1 ч. 39 м.
Общий поток : 3124 Кбит/сек
Программа кодирования : VirtualDubModRus 1.5.10.2 (build 2540/release)
Библиотека кодирования : VirtualDubMod build 2540/release

Видео
Идентификатор : 0
Формат : MPEG-4 Visual
Параметр BVOP формата : Да
Параметр QPel формата : Нет
Параметр GMC формата : Без точки перехода
Параметр матрицы формата : Выборочная
Идентификатор кодека : DX50
Идентификатор кодека/Подсказка : DivX 5
Продолжительность : 1 ч. 39 м.
Битрейт : 2220 Кбит/сек
Ширина : 720 пикселей
Высота : 304 пикселя
Соотношение сторон : 16:9
Соотношение сторон в оригинале : 2,35:1
Частота кадров : 23,976 кадра/сек
Цветовое пространство : YUV
Субдискретизация насыщенности : 4:2:0
Битовая глубина : 8 бит
Тип развёртки : Прогрессивная
Метод сжатия : С потерями
Бит/(Пиксели*Кадры) : 0.423
Размер потока : 1,55 Гбайт (71%)
Библиотека кодирования : DivX 6.8.5 (UTC 2009-08-20)

Аудио #1
Идентификатор : 1
Формат : AC-3
Формат/Информация : Audio Coding 3
Расширение режима : CM (complete main)
Параметр Endianness формата : Big
Идентификатор кодека : 2000
Продолжительность : 1 ч. 39 м.
Вид битрейта : Постоянный
Битрейт : 448 Кбит/сек
Каналы : 6 каналов
Расположение каналов : Front: L C R, Side: L R, LFE
Частота : 48,0 КГц
Битовая глубина : 16 бит
Метод сжатия : С потерями
Размер потока : 320 Мбайт (14%)
Выравнивание : Разделение по промежуткам
Продолжительность промежутка : 42 мс. (1,00 видеокадр)
Время предзагрузки промежутка : 500 мс.

Аудио #2
Идентификатор : 2
Формат : AC-3
Формат/Информация : Audio Coding 3
Расширение режима : CM (complete main)
Параметр Endianness формата : Big
Идентификатор кодека : 2000
Продолжительность : 1 ч. 37 м.
Вид битрейта : Постоянный
Битрейт : 448 Кбит/сек
Каналы : 6 каналов
Расположение каналов : Front: L C R, Side: L R, LFE
Частота : 48,0 КГц
Битовая глубина : 16 бит
Метод сжатия : С потерями
Размер потока : 313 Мбайт (14%)
Выравнивание : Разделение по промежуткам
Продолжительность промежутка : 43 мс. (1,02 видеокадр)
Время предзагрузки промежутка : 500 мс.
Роли матери и сестры главного героя «сыграла» жена Роберта Земекиса - Лесли.
Фильм вошёл в Книгу рекордов Гиннесса как первый фильм, где вся игра актёров передана оцифровкой реальных людей.
Том Хэнкс «играет» пять ролей в этом фильме: мальчик-главный герой, его отец, проводник, Дух Рождества и Санта Клаус.
Адрес, который называет кондуктор в самом начале фильма, - реальный адрес дома, где жил в детстве Роберт Земекис.
В сцене, где главный герой дёргает за паровозный гудок, он говорит: «Я мечтал об этом всю жизнь!». То же самое делает Эммет Браун в другом фильме Роберта Земекиса «Назад в Будущее 3».
Фильм поставлен по небольшому рассказу Криса Ван Оллсбурга «Полярный Экспресс», изданному в 1985 году. Рассказ состоял всего из 32 страниц, на которых при этом было огромное количество иллюстраций (Ван Оллсбург в первую очередь художник). Поэтому во многом сюжет рассказа дополняли личные идеи Роберта Земекиса.
Паровоз, который тянет Полярный экспресс, смоделирован с реально существующего паровоза «Pere Marquette 1225», который хранится в железнодорожном институте города Овоссо, штат Мичиган. Сотрудники Skywalker Sound специально приезжали в Овоссо записывать его звуки (стук колес, выпуск пара, свист....). Этот паровоз 1941 года постройки, планировалось пустить на слом в 1951 году. Однако в 1957 году он был приобретен Университетом штата Мичиган и выставлен на территории кампуса. В 1971 году группа энтузиастов начала восстановление локомотива до рабочего состояния. Восстановление было завершено в 1985 году, и в 1988 году этот паровоз стал таскать экскурсионные поезда.

Скриншоты:


Время раздачи: С 10.00 до 23.00

[NNM-Club.ru]_The.Polar.Express.2004.BDrip.torrent
 Торрент: Платиновая раздача  Зарегистрирован
 
Скачать


Примагнититься
 Зарегистрирован:   21 Май 2012 09:29:08
 Размер:   2,81 GB  (
 Рейтинг:   5 (Голосов: 59)
 Поблагодарили:   259
 Проверка:   Оформление проверено модератором 21 Май 2012 17:53:52
Как cкачать  ·  Как раздать  ·  Правильно оформить  ·  Поднять ратио!  
Loading...
Показать сообщения:   
Начать новую тему   Ответить на тему    Торрент-трекер NNM-Club -> Мультфильмы -> Зарубежные Мультфильмы (HD*Rip/LQ, DVDRip, SATRip, VHSRip) Часовой пояс: GMT + 3
Страница 1 из 1