Классический форум-трекер
canvas not supported
Нас вместе: 4 084 003
Платим за отзывы

Тор: Легенда викингов / Hetjur Valhallar - Por (2011) BDRip [720p]


 
 
RSS
Начать новую тему   Ответить на тему    Торрент-трекер NNM-Club -> Мультфильмы -> Зарубежные Мультфильмы (HD, UHD, UHD-LQ)
Автор Сообщение
bog3417 ®
Стаж: 8 лет 5 мес.
Сообщений: 198
Ratio: 56,168
Поблагодарили: 11079
100%
ukraine.gif
Тор: Легенда викингов / Hetjur Valhallar - Por (2011) BDRip (720p)
Русское название: Тор: Легенда викингов
Оригинальное название: Hetjur Valhallar - Por
Страна: Германия, Исландия, Ирландия, CAOZ hf., Magma Films Ltd. (I), Ulysses
Год выпуска: 2011
Жанр: Mультфильм, Комедия, Приключения, Семейный
Перевод: Дублированный
Субтитры: Нет



Дата мировой премьеры: 14 октября 2011
Дата российской премьеры: 22 марта 2012, «Централ Партнершип»
Дата выхода DVD релиза: 26 апреля 2012, «Флагман-Трейд»
Дата выхода Blu-Ray релиза: 15 мая 2012, «Флагман-Трейд»

Описание:
Самоуверенный подросток, в арсенале которого находятся магическое оружие, присоединяется к борьбе против злой королевы и ее армии великанов.

Режиссер: Оускар Йоунассон, Тоби Генкель, Гуннар Карлссон
Актеры: Джастин Грегг, Пол Тайлак, Николя Кохлан, Лиз Ллойд, Алан Стэнфорд, Эммет Скэнлэн, Дж. Дрю Лукас, Мэри Мюррэй, Леса Турман, Гари Хецлер

Продолжительность: 01:23:00
Видеокодек: MPEG-4 AVC/H.264
Битрейт видео: ~5261 kb/s
Размер кадра: 1280x528
Качество видео: BDRip (720p)
Аудиокодек: AC3 5.1
Битрейт аудио: 640 kb/s VBR
Сэмпл: Ссылка

Релиз от:
G
eneral
Complete name : Tor.Legenda.vikingov.2011.D.BDRip.720p.mkv
Format : Matroska
Format version : Version 2
File size : 3.42 GiB
Duration : 1h 23mn
Overall bit rate : 5 902 Kbps
Movie name : Tor.Legenda.vikingov.2011.D.BDRip.720p
Encoded date : UTC 2012-05-21 09:09:15
Writing application : mkvmerge v5.3.0 ('I could have danced') built on Feb 9 2012 10:38:07
Writing library : libebml v1.2.3 + libmatroska v1.3.0

Video
ID : 1
Format : AVC
Format/Info : Advanced Video Codec
Format profile : High@L4.1
Format settings, CABAC : Yes
Format settings, ReFrames : 10 frames
Codec ID : V_MPEG4/ISO/AVC
Duration : 1h 23mn
Bit rate : 5 261 Kbps
Width : 1 280 pixels
Height : 528 pixels
Display aspect ratio : 2.40:1
Frame rate : 23.976 fps
Color space : YUV
Chroma subsampling : 4:2:0
Bit depth : 8 bits
Scan type : Progressive
Bits/(Pixel*Frame) : 0.325
Stream size : 2.98 GiB (87%)
Title : Tor.Legenda.vikingov.2011.D.BDRip.720p
Writing library : x264 core 119 r2106 07efeb4
Encoding settings : cabac=1 / ref=10 / deblock=1:-3:-3 / analyse=0x3:0x113 / me=umh / subme=9 / psy=1 / psy_rd=1.10:1.00 / mixed_ref=1 / me_range=32 / chroma_me=1 / trellis=2 / 8x8dct=1 / cqm=0 / deadzone=21,11 / fast_pskip=0 / chroma_qp_offset=-4 / threads=6 / sliced_threads=0 / nr=0 / decimate=1 / interlaced=0 / bluray_compat=0 / constrained_intra=0 / bframes=8 / b_pyramid=2 / b_adapt=2 / b_bias=0 / direct=3 / weightb=1 / open_gop=0 / weightp=2 / keyint=250 / keyint_min=23 / scenecut=40 / intra_refresh=0 / rc=2pass / mbtree=0 / bitrate=5261 / ratetol=1.0 / qcomp=0.60 / qpmin=0 / qpmax=69 / qpstep=4 / cplxblur=20.0 / qblur=0.5 / ip_ratio=1.40 / pb_ratio=1.30 / aq=1:1.00
Language : Russian

Audio
ID : 2
Format : AC-3
Format/Info : Audio Coding 3
Mode extension : CM (complete main)
Codec ID : A_AC3
Duration : 1h 23mn
Bit rate mode : Constant
Bit rate : 640 Kbps
Channel(s) : 6 channels
Channel positions : Front: L C R, Side: L R, LFE
Sampling rate : 48.0 KHz
Bit depth : 16 bits
Compression mode : Lossy
Stream size : 380 MiB (11%)
Title : AC3
Language : Russian

Menu
00:00:00.000 : ru:00:00:00.000
00:08:11.700 : ru:00:08:11.700
00:15:34.642 : ru:00:15:34.642
00:23:53.140 : ru:00:23:53.140
00:31:51.368 : ru:00:31:51.368
00:39:02.340 : ru:00:39:02.340
00:46:40.297 : ru:00:46:40.297
00:54:32.936 : ru:00:54:32.936
01:02:40.173 : ru:01:02:40.173
01:12:02.276 : ru:01:12:02.276
01:18:45.095 : ru:01:18:45.095
Скриншоты:


Время раздачи: (24/7 - круглосуточно)
[NNM-Club.ru]_Tor.Legenda.vikingov.2011.x264.BDRip.720p.mkv.torrent
 Торрент: Платиновая раздача  Зарегистрирован
 
Скачать


Примагнититься
 Зарегистрирован:   21 Май 2012 13:53:31
 Размер:   3,42 GB  (
 Рейтинг:   4,9 (Голосов: 31)
 Поблагодарили:   121
 Проверка:   Оформление проверено модератором 21 Май 2012 17:39:50
Как cкачать  ·  Как раздать  ·  Правильно оформить  ·  Поднять ратио!  
Loading...
almikl
Куратор Детского.
Модератор Видео.
RG Всё лучшее - детям!
Uploader 500+
 
Стаж: 12 лет 6 мес.
Сообщений: 4786
Ratio: 348,892
Поблагодарили: 108693
100%
Откуда: Дааалекое Подмосковье
russia.gif
Все раздачи Тор: Легенда викингов на NNM-CLUB
akado-151
Стаж: 9 лет 5 мес.
Сообщений: 21
Ratio: 3,833
3.6%
Откуда: Москва
russia.gif
скучный(
Показать сообщения:   
Начать новую тему   Ответить на тему    Торрент-трекер NNM-Club -> Мультфильмы -> Зарубежные Мультфильмы (HD, UHD, UHD-LQ) Часовой пояс: GMT + 3
Страница 1 из 1