Классический форум-трекер
canvas not supported
Нас вместе: 4 079 115

Доктор Хаус / House M.D. (2004-2012) WEB-DLRip (сезоны 1-8, полные (177 из 177 серий)) [LostFilm]


Страницы:  1, 2  След. 
 
RSS
Начать новую тему   Ответить на тему    Торрент-трекер NNM-Club -> Зарубежные сериалы -> Доктор Хаус / House M.D.
Автор Сообщение
ericg17 ®
Uploaders
 
Стаж: 9 лет 9 мес.
Сообщений: 50
Ratio: 35,264
Поблагодарили: 5246
1.46%
russia.gif
Доктор Хаус / House M.D. (сезоны 1-8, полные) (2004-2012) WEB-DLRip [LostFilm] [177 из 177 серий]
Год выпуска: 2004-2012
Жанр: Драма, Мелодрама, Комедия
Продолжительность: 177 x ~00:45
Официальный сайт сериала: http://www.fox.com/house/index.htm
Перевод: Многоголосый закадровый, профессиональный

Режиссер: Брайан Сингер, Дэвид Шор
Актеры: Хью Лори, Роберт Шон Леонард, Лиза Эдельштейн, Омар Эппс, Джесси Спенсер, Дженнифер Моррисон, Боббин Бергсторм, Оливия Уайлд, Питер Джекобсон, Кэл Пенн и др.

Описание:
Доктор Грегори Хаус (Хью Лори) – выдающийся врач и злой гений, который не отличается проникновенностью в общении с больными и коллегами и с удовольствием избегает и тех, и других, однако при этом способен привести к успеху самые запутанные медицинские случаи.

Все свое время Хаус проводит в борьбе с собственной болью, которая порождает его жесткую ядовитую манеру общения.

Порой его поведение можно назвать почти бесчеловечным («Мама, а кто это? Это, сынок — подонок, который спас тебе жизнь»), но при этом он прекрасный врач, обладающий нестандартным мышлением и уникальным чутьем, что снискало ему глубокое уважение в кругу коллег и востребованность среди пациентов.

В больнице Принстон-Плейнсборо Хаус возглавляет элитную команду диагностов, которая занимается исключительными медицинскими случаями. В команде Хауса работают ведущие эксперты различных областей медицины: невролог Эрик Форман (Омар Эппс), хирург Роберт Чейз (Джесси Спенсер), терапевт Реми Хадли «Тринадцать» (Оливия Уайлд), пластический хирург Крис Тауб (Питер Джейкобсон).

Старинный друг Хауса, онколог доктор Джеймс Уилсон (Роберт Шон Леонард), не смотря на постоянные колкости и двусмысленные выходки Хауса, всегда старается помочь ему и оправдать Хауса даже в самой критической ситуации. А главврач клиники доктор Лиза Кадди (Лиза Эдельштейн) терпит возмутительные поступки Хауса не только из-за его профессионального потенциала и выдающихся показателей по «раскрываемости» бесперспективных случаев…
Список серий и обложки для дисков
Информация о раздаче:


Качество: WEB-DLRip
Формат: AVI
Видео кодек: XviD
Аудио кодек: MP3
Видео: 656x368 (16/9), 23.976 fps, 1006 Kbps, 0.17 bit/pixel
Аудио: 48 kHz, MPEG Layer 3, 2 ch, 128 kbps avg
Общее
Полное имя : E:\Films\House MD [NNM-Club]\House MD 656x368 [NNM-Club]\Сезон 1\House.M.D.S01E01.WEB-DLRip.LostFilm.avi
Формат : AVI
Формат/Информация : Audio Video Interleave
Размер файла : 360 Мбайт
Продолжительность : 44 м.
Общий поток : 1144 Кбит/сек
Программа кодирования : VirtualDubMod 1.5.10.3 | www.virtualdub-fr.org || (build 2550/release)
Библиотека кодирования : VirtualDubMod build 2550/release

Видео
Идентификатор : 0
Формат : MPEG-4 Visual
Профиль формата : Advanced Simple@L5
Параметр BVOP формата : 1
Параметр QPel формата : Нет
Параметр GMC формата : Без точки перехода
Параметр матрицы формата : Default (H.263)
Идентификатор кодека : XVID
Идентификатор кодека/Подсказка : XviD
Продолжительность : 44 м.
Битрейт : 1006 Кбит/сек
Ширина : 656 пикселей
Высота : 368 пикселей
Соотношение сторон : 16:9
Частота кадров : 23,976 кадра/сек
Цветовое пространство : YUV
Субдискретизация насыщенности : 4:2:0
Битовая глубина : 8 бит
Тип развёртки : Прогрессивная
Метод сжатия : С потерями
Бит/(Пиксели*Кадры) : 0.174
Размер потока : 317 Мбайт (88%)
Библиотека кодирования : XviD 63

Аудио
Идентификатор : 1
Формат : MPEG Audio
Версия формата : Version 1
Профиль формата : Layer 3
Режим : Joint stereo
Расширение режима : MS Stereo
Идентификатор кодека : 55
Идентификатор кодека/Подсказка : MP3
Продолжительность : 44 м.
Вид битрейта : Постоянный
Битрейт : 128 Кбит/сек
Каналы : 2 канала
Частота : 48,0 КГц
Метод сжатия : С потерями
Размер потока : 40,3 Мбайт (11%)
Выравнивание : Соединение по промежуткам
Продолжительность промежутка : 42 мс. (1,00 видеокадр)
Время предзагрузки промежутка : 504 мс.
Библиотека кодирования : LAME3.98r
Настройки программы : -m j -V 4 -q 0 -lowpass 17 -b 128
Скриншоты




Время раздачи: 24/7

Как закачать отдельный файл из торрента или докачать ранее пропущенные файлы торрента.
House MD 656x368 [NNM-Club].torrent
 Торрент: Платиновая раздача  Зарегистрирован
 
Скачать


Примагнититься
 Зарегистрирован:   29 Ноя 2018 00:17:57
 Размер:   62,5 GB  (
 Рейтинг:   4,9 (Голосов: 646)
 Поблагодарили:   2101
 Проверка:   Оформление проверено модератором 29 Ноя 2018 07:37:07
Как cкачать  ·  Как раздать  ·  Правильно оформить  ·  Поднять ратио!  

_________________
Избегайте тех, кто старается подорвать вашу веру в себя. Эта черта мелких людей. Великий человек, наоборот, внушает вам чувство, что и вы можете стать великим (с)
Загрузка...
VbInt
Стаж: 9 лет 7 мес.
Сообщений: 294
Ratio: 35,886
Поблагодарили: 499
26.32%
Откуда: Нижневартовск
russia.gif
спасибо большое, качаю)
zzzRevanzzz
Стаж: 8 лет 7 мес.
Сообщений: 351
Ratio: 2,591
Поблагодарили: 53
100%
russia.gif
Супер! Качаю. Автору :респект:

_________________
artemtrs
Стаж: 7 лет 7 мес.
Сообщений: 5
Ratio: 6,817
russia.gif
:подмигивание: :да: :респект:
m()narch
 
Стаж: 9 лет 5 мес.
Сообщений: 95
Ratio: 12,194
100%
russia.gif
Спасибо, покажу жене =)
мин-воды
 
Стаж: 8 лет 7 мес.
Сообщений: 2044
Ratio: 18,565
Поблагодарили: 54060
100%
Откуда: Минеральные Воды
neth_antilles.gif
самый самый - жаль что всё закончилось...
Пшеничка
Стаж: 7 лет 2 мес.
Сообщений: 64
Ratio: 5,783
100%
russia.gif
:плач:
Pinkox
 
Стаж: 7 лет 11 мес.
Сообщений: 259
Ratio: 29,329
Раздал: 45,83 TB
100%
Откуда: Тортуга
pirates.png
Вся прелесть в том что бы закончилось.
Иначе сериал бы обзывали неприличными словами Санта Барбара :)

ИМХО Шести сезонов было достаточно.
buv123
 
Стаж: 8 лет 3 мес.
Сообщений: 30
Ratio: 12,726
4.18%
понеслись )
lHenessy
Стаж: 7 лет 2 мес.
Сообщений: 15
Ratio: 23,236
100%
спасибо, забираю!
mrAlex72
Стаж: 9 лет 2 мес.
Сообщений: 19
Ratio: 4,422
Раздал: 4,782 TB
100%
russia.gif
6 сезон 3 эпизод (2 серия, т.к. 1-ая состоит из 2-ух эпизодов) на 1:37 зависает и дальше всё видео запаздывает
The_crow95
Стаж: 7 лет 4 мес.
Сообщений: 11
Ratio: 2,397
100%
Это ребят , дай те скорости. А то по 1 мегабито качать после 3 не круто.
BANDERLOGIE
Стаж: 8 лет 4 мес.
Сообщений: 17
Ratio: 574,441
Раздал: 18,64 TB
100%
russia.gif
___________________
MaBePuK
Uploader 100+
Стаж: 7 лет
Сообщений: 216
Ratio: 1007,621
Раздал: 354,3 TB
100%
russia.gif
Спасибо!!!
Vicek
Стаж: 8 лет 8 мес.
Сообщений: 103
Ratio: 1,657
100%
ussr.gif
Спасибо за раздачу!
Показать сообщения:   
Начать новую тему   Ответить на тему    Торрент-трекер NNM-Club -> Зарубежные сериалы -> Доктор Хаус / House M.D. Часовой пояс: GMT + 3
Страницы:  1, 2  След.
Страница 1 из 2