Классический форум-трекер
canvas not supported
Нас вместе: 4 093 853

Мультфильмы студии "Мельница" - Богатыри (6 мультфильмов) [H.264/1080p-LQ] BDRip / (2004 - 2012)


Страницы:  1, 2, 3, 4  След. 
 
RSS
Начать новую тему   Ответить на тему    Торрент-трекер NNM-Club -> Мультфильмы -> Отечественные Мультфильмы (HD*Rip/LQ, DVDRip, SATRip, VHSRip)
Автор Сообщение
smithland ®
Стаж: 9 лет 6 мес.
Сообщений: 1707
Ratio: 45,427
Поблагодарили: 121372
67.84%
barbados.gif

Мультфильмы студии "Мельница" - Алеша Попович и Тугарин Змей , Добрыня Никитич и Змей Горыныч , Илья Муромец и Соловей Разбойник , Три богатыря и Шамаханская царица , Иван Царевич и Серый Волк , Три богатыря на дальних берегах
[H.264/1080p-LQ] BDRip
Богатыри (2004 - 2012) BDRip



Год выпуска: 2004 - 2012
Жанр: Детский, Рисованная анимация

Режиссер: Константин Бронзит , Илья Максимов , Владимир Торопчин , Сергей Глезин
Алеша Попович и Тугарин Змей

Год выпуска: 2004
Страна: Россия
Жанр: Детский, Рисованная анимация
Продолжительность: 01:18:51

Режиссер: Константин Бронзит

Роли озвучивали:

Олег Куликович (Алеша Попович, озвучка), Лия Медведева (Любава, озвучка), Дмитрий Высоцкий (конь Юлий, озвучка), Анатолий Петров (Тихон, озвучка), Наталья Данилова (Бабушка, озвучка), Сергей Маковецкий (Князь Киевский, озвучка), Иван Краско (Святогор, озвучка), Татьяна Иванова (Мать, озвучка), Михаил Черняк (Авторский текст / Ослик Моисей, озвучка), Константин Бронзит (Тугарин, озвучка), Елена Шульман (цыганка, озвучка)

Описание:

В древнем русском городе Ростове родился в поповской семье сын. Назвали его родители Алешей. А когда он вырос и стал богатырем, то совершил такие подвиги, что стал героем русских былин Алешей Поповичем. Только подвиги его начались с конфуза…
Подступила к Ростову тугарская вражеская орда во главе с Тугарином Змеем и потребовала, чтобы жители города выплатили дань.


Общее
Уникальный идентификатор : 232342960231892131064935010851981302377 (0xAECBA05EE258482EAA6523D3965B1A69)
Полное имя : Алеша Попович и Тугарин Змей.mkv
Формат : Matroska
Версия формата : Version 2
Размер файла : 1,76 Гбайт
Продолжительность : 1 ч. 18 м.
Общий поток : 3199 Кбит/сек
Дата кодирования : UTC 2012-04-12 17:34:15
Программа кодирования : mkvmerge v5.0.1 ('Es ist Sommer') built on Oct 24 2011 19:45:06
Библиотека кодирования : libebml v1.2.2 + libmatroska v1.3.0

Видео
Идентификатор : 1
Формат : AVC
Формат/Информация : Advanced Video Codec
Профиль формата : High@L4.0
Параметр CABAC формата : Да
Параметр ReFrames формата : 4 кадра
Идентификатор кодека : V_MPEG4/ISO/AVC
Продолжительность : 1 ч. 18 м.
Битрейт : 3000 Кбит/сек
Ширина : 1920 пикселей
Высота : 1080 пикселей
Соотношение сторон : 16:9
Частота кадров : 23,976 кадра/сек
Цветовое пространство : YUV
Субдискретизация насыщенности : 4:2:0
Битовая глубина : 8 бит
Тип развёртки : Прогрессивная
Бит/(Пиксели*Кадры) : 0.060
Размер потока : 1,60 Гбайт (91%)
Библиотека кодирования : x264 core 119 r2106 07efeb4
Настройки программы : cabac=1 / ref=4 / deblock=1:-1:0 / analyse=0x3:0x133 / me=umh / subme=9 / psy=1 / psy_rd=1.20:0.45 / mixed_ref=1 / me_range=24 / chroma_me=1 / trellis=1 / 8x8dct=1 / cqm=0 / deadzone=21,11 / fast_pskip=0 / chroma_qp_offset=-4 / threads=6 / sliced_threads=0 / nr=0 / decimate=1 / interlaced=0 / bluray_compat=0 / constrained_intra=0 / bframes=4 / b_pyramid=2 / b_adapt=1 / b_bias=0 / direct=1 / weightb=1 / open_gop=1 / weightp=2 / keyint=250 / keyint_min=23 / scenecut=40 / intra_refresh=0 / rc_lookahead=50 / rc=abr / mbtree=1 / bitrate=3000 / ratetol=1.0 / qcomp=0.60 / qpmin=0 / qpmax=69 / qpstep=4 / ip_ratio=1.40 / aq=1:1.00
Default : Да
Forced : Нет

Аудио
Идентификатор : 2
Формат : AC-3
Формат/Информация : Audio Coding 3
Расширение режима : CM (complete main)
Идентификатор кодека : A_AC3
Продолжительность : 1 ч. 18 м.
Вид битрейта : Постоянный
Битрейт : 224 Кбит/сек
Каналы : 6 каналов
Расположение каналов : Front: L C R, Side: L R, LFE
Частота : 48,0 КГц
Битовая глубина : 16 бит
Метод сжатия : С потерями
Размер потока : 126 Мбайт (7%)
Default : Да
Forced : Нет
Скриншоты:



Видеокодек: MPEG-4 AVC/H.264
Битрейт видео: ~3000 Kbps
Размер кадра: 1920х1080
Качество видео: BDRip
Аудиокодек: AC3 5.1
Битрейт аудио: 224 Kbps

Добрыня Никитич и Змей Горыныч

Год выпуска: 2006
Страна: Россия
Жанр: Детский, Рисованная анимация
Продолжительность: 01:08:08

Режиссер: Илья Максимов

Роли озвучивали:

Валерий Соловьев (Добрыня Никитич, озвучка), Юрий Тарасов (Елисей, озвучка), Сергей Маковецкий (Князь Киевский, озвучка), Андрей Толубеев (Купец Колыван, озвучка), Екатерина Гороховская (Забава Путятична, озвучка), Олег Куликович (Змей Горыныч, озвучка), Анатолий Петров (Бекет - Крымский Хан, озвучка), Наталья Данилова (Баба Яга, озвучка)

Описание:

Пока храбрый воин Добрыня Никитич собирал с тугар дань, в Киеве похитили любимую племянницу князя — Забаву Путятичну. Вопреки воле князя, Добрыня с женихом Забавы Елисеем отправляется на ее поиски. В пути их ждет много приключений…

Общее
Уникальный идентификатор : 249318456934137900206284816968396534609 (0xBB90FCFA0183D6A9A131EF59093F7351)
Полное имя : Добрыня Никитич и Змей Горыныч.mkv
Формат : Matroska
Версия формата : Version 2
Размер файла : 1,51 Гбайт
Продолжительность : 1 ч. 8 м.
Общий поток : 3173 Кбит/сек
Дата кодирования : UTC 2012-04-13 02:18:31
Программа кодирования : mkvmerge v5.0.1 ('Es ist Sommer') built on Oct 24 2011 19:45:06
Библиотека кодирования : libebml v1.2.2 + libmatroska v1.3.0

Видео
Идентификатор : 1
Формат : AVC
Формат/Информация : Advanced Video Codec
Профиль формата : High@L4.0
Параметр CABAC формата : Да
Параметр ReFrames формата : 4 кадра
Идентификатор кодека : V_MPEG4/ISO/AVC
Продолжительность : 1 ч. 8 м.
Битрейт : 3000 Кбит/сек
Ширина : 1920 пикселей
Высота : 1080 пикселей
Соотношение сторон : 16:9
Частота кадров : 23,976 кадра/сек
Цветовое пространство : YUV
Субдискретизация насыщенности : 4:2:0
Битовая глубина : 8 бит
Тип развёртки : Прогрессивная
Бит/(Пиксели*Кадры) : 0.060
Размер потока : 1,37 Гбайт (91%)
Библиотека кодирования : x264 core 119 r2106 07efeb4
Настройки программы : cabac=1 / ref=4 / deblock=1:-1:0 / analyse=0x3:0x133 / me=umh / subme=9 / psy=1 / psy_rd=1.20:0.50 / mixed_ref=1 / me_range=24 / chroma_me=1 / trellis=1 / 8x8dct=1 / cqm=0 / deadzone=21,11 / fast_pskip=1 / chroma_qp_offset=-4 / threads=6 / sliced_threads=0 / nr=0 / decimate=1 / interlaced=0 / bluray_compat=0 / constrained_intra=0 / bframes=4 / b_pyramid=2 / b_adapt=1 / b_bias=0 / direct=1 / weightb=1 / open_gop=1 / weightp=2 / keyint=250 / keyint_min=23 / scenecut=40 / intra_refresh=0 / rc_lookahead=40 / rc=abr / mbtree=1 / bitrate=3000 / ratetol=1.0 / qcomp=0.60 / qpmin=0 / qpmax=69 / qpstep=4 / ip_ratio=1.40 / aq=1:1.00
Default : Да
Forced : Нет

Аудио
Идентификатор : 2
Формат : AC-3
Формат/Информация : Audio Coding 3
Расширение режима : CM (complete main)
Идентификатор кодека : A_AC3
Продолжительность : 1 ч. 8 м.
Вид битрейта : Постоянный
Битрейт : 224 Кбит/сек
Каналы : 6 каналов
Расположение каналов : Front: L C R, Side: L R, LFE
Частота : 48,0 КГц
Битовая глубина : 16 бит
Метод сжатия : С потерями
Размер потока : 109 Мбайт (7%)
Default : Да
Forced : Нет
Скриншоты:



Видеокодек: MPEG-4 AVC/H.264
Битрейт видео: ~3000 Kbps
Размер кадра: 1920х1080
Качество видео: BDRip
Аудиокодек: AC3 5.1
Битрейт аудио: 224 Kbps

Илья Муромец и Соловей Разбойник

Год выпуска: 2007
Страна: Россия
Жанр: Детский, Рисованная анимация
Продолжительность: 01:19:31

Режиссер: Владимир Торопчин

Роли озвучивали:

(Василевс, Император Византийский, озвучка), Екатерина Гороховская (Алёнушка, озвучка), Валерий Соловьев (Илья Муромец, озвучка), Сергей Маковецкий (Князь Киевский, озвучка), Анатолий Петров (Пройдоха / Погонщик Коня, озвучка), Андрей Толубеев (Соловей-разбойник, озвучка), Олег Куликович (бандит, озвучка), Юрий Тарасов (Помомщник Василевса, озвучка), Наталья Данилова (Мама Ильи / Византийская бабушка, озвучка)

Описание:

Славится земля русская богатырями богатырскими да разбойниками разбойничьими…
А сверху всего князь княжеский сидит, за всем следит и порядок наводит, если нужно. Да только не всегда выходит у князя так, как нужно — правильно.
Вот и сейчас — с богатырём поругался да от Соловья Разбойника урон потерпел немалый: увёл бандит окаянный казну государственную прямо из-под носа!


Общее
Уникальный идентификатор : 215798436523367831111511403533504988426 (0xA259445FB2990FFB800283A9E42DC50A)
Полное имя : Илья Муромец и Соловей Разбойник.mkv
Формат : Matroska
Версия формата : Version 2
Размер файла : 1,76 Гбайт
Продолжительность : 1 ч. 19 м.
Общий поток : 3171 Кбит/сек
Дата кодирования : UTC 2012-04-15 14:20:49
Программа кодирования : mkvmerge v5.0.1 ('Es ist Sommer') built on Oct 24 2011 19:45:06
Библиотека кодирования : libebml v1.2.2 + libmatroska v1.3.0

Видео
Идентификатор : 1
Формат : AVC
Формат/Информация : Advanced Video Codec
Профиль формата : High@L4.0
Параметр CABAC формата : Да
Параметр ReFrames формата : 4 кадра
Идентификатор кодека : V_MPEG4/ISO/AVC
Продолжительность : 1 ч. 19 м.
Битрейт : 3000 Кбит/сек
Ширина : 1920 пикселей
Высота : 1080 пикселей
Соотношение сторон : 16:9
Частота кадров : 23,976 кадра/сек
Цветовое пространство : YUV
Субдискретизация насыщенности : 4:2:0
Битовая глубина : 8 бит
Тип развёртки : Прогрессивная
Бит/(Пиксели*Кадры) : 0.060
Размер потока : 1,60 Гбайт (91%)
Библиотека кодирования : x264 core 119 r2106 07efeb4
Настройки программы : cabac=1 / ref=4 / deblock=1:-1:0 / analyse=0x3:0x133 / me=umh / subme=9 / psy=1 / psy_rd=1.45:0.50 / mixed_ref=1 / me_range=24 / chroma_me=1 / trellis=1 / 8x8dct=1 / cqm=0 / deadzone=21,11 / fast_pskip=0 / chroma_qp_offset=-4 / threads=6 / sliced_threads=0 / nr=0 / decimate=1 / interlaced=0 / bluray_compat=0 / constrained_intra=0 / bframes=4 / b_pyramid=2 / b_adapt=1 / b_bias=0 / direct=1 / weightb=1 / open_gop=1 / weightp=2 / keyint=250 / keyint_min=23 / scenecut=40 / intra_refresh=0 / rc_lookahead=50 / rc=abr / mbtree=1 / bitrate=3000 / ratetol=1.0 / qcomp=0.60 / qpmin=0 / qpmax=69 / qpstep=4 / ip_ratio=1.40 / aq=1:1.00
Default : Да
Forced : Нет

Аудио
Идентификатор : 2
Формат : AC-3
Формат/Информация : Audio Coding 3
Расширение режима : CM (complete main)
Идентификатор кодека : A_AC3
Продолжительность : 1 ч. 19 м.
Вид битрейта : Постоянный
Битрейт : 224 Кбит/сек
Каналы : 6 каналов
Расположение каналов : Front: L C R, Side: L R, LFE
Частота : 48,0 КГц
Битовая глубина : 16 бит
Метод сжатия : С потерями
Размер потока : 127 Мбайт (7%)
Default : Да
Forced : Нет
Скриншоты:



Видеокодек: MPEG-4 AVC/H.264
Битрейт видео: ~3000 Kbps
Размер кадра: 1920х1080
Качество видео: BDRip
Аудиокодек: AC3 5.1
Битрейт аудио: 224 Kbps

Три богатыря и Шамаханская царица

Год выпуска: 2010
Страна: Россия
Жанр: Детский, Рисованная анимация
Продолжительность: 01:16:32

Режиссер: Сергей Глезин

Роли озвучивали:

Дмитрий Быковский-Ромашов (Илья Муромец, озвучка), Валерий Соловьев (Добрыня Никитич, озвучка), Олег Куликович (Алеша Попович / Змей Горыныч, озвучка), Сергей Маковецкий (князь Киевский, озвучка), Анна Геллер (Шамаханская царица, озвучка), Дмитрий Высоцкий (конь Юлий, озвучка), Константин Бронзит (ворон, озвучка), Мария Цветкова-Овсянникова (Аленушка, озвучка), Елена Шульман (Настасья, озвучка), Лия Медведева (Любава, озвучка), Игорь Шибанов (советник, озвучка), Анатолий Петров (Тихон / сэнсэй, озвучка)

Описание:

Легендарная Шамаханская царица, которая сводила с ума многих царей и простых смертных, положила свой глаз и на Киевского князя.
Тот заболел любовью странной по ней. Но чтобы доставить в целости и сохранности эту чудо-богиню в Киев-Град, срочно из отпуска вызывают всех троих, уже знакомых нам, богатырей: Алёшу Поповича, Добрыню Никитича и Илью Муромца.


Общее
Уникальный идентификатор : 211854487824534344639994942644442111512 (0x9F61B0B0A576433B85FEED469D781E18)
Полное имя : Три богатыря и Шамаханская царица.mkv
Формат : Matroska
Версия формата : Version 2
Размер файла : 1,22 Гбайт
Продолжительность : 1 ч. 16 м.
Общий поток : 2282 Кбит/сек
Название фильма : Три богатыря и Шамаханская царица (rip by smithland)
Дата кодирования : UTC 2012-04-25 14:57:42
Программа кодирования : mkvmerge v5.5.0 ('Healer') built on Apr 6 2012 21:43:24
Библиотека кодирования : libebml v1.2.3 + libmatroska v1.3.0

Видео
Идентификатор : 1
Формат : AVC
Формат/Информация : Advanced Video Codec
Профиль формата : High@L4.0
Параметр CABAC формата : Да
Параметр ReFrames формата : 4 кадра
Идентификатор кодека : V_MPEG4/ISO/AVC
Продолжительность : 1 ч. 16 м.
Битрейт : 2000 Кбит/сек
Ширина : 1920 пикселей
Высота : 1080 пикселей
Соотношение сторон : 16:9
Частота кадров : 24,000 кадра/сек
Цветовое пространство : YUV
Субдискретизация насыщенности : 4:2:0
Битовая глубина : 8 бит
Тип развёртки : Прогрессивная
Бит/(Пиксели*Кадры) : 0.040
Размер потока : 1,02 Гбайт (84%)
Библиотека кодирования : x264 core 119 r2106 07efeb4
Настройки программы : cabac=1 / ref=4 / deblock=1:-1:1 / analyse=0x3:0x113 / me=umh / subme=9 / psy=1 / psy_rd=1.50:0.85 / mixed_ref=1 / me_range=24 / chroma_me=1 / trellis=1 / 8x8dct=1 / cqm=0 / deadzone=21,11 / fast_pskip=1 / chroma_qp_offset=-4 / threads=6 / sliced_threads=0 / nr=0 / decimate=1 / interlaced=0 / bluray_compat=0 / constrained_intra=0 / bframes=4 / b_pyramid=2 / b_adapt=1 / b_bias=0 / direct=1 / weightb=1 / open_gop=1 / weightp=2 / keyint=250 / keyint_min=23 / scenecut=40 / intra_refresh=0 / rc_lookahead=40 / rc=abr / mbtree=1 / bitrate=2000 / ratetol=1.0 / qcomp=0.60 / qpmin=0 / qpmax=69 / qpstep=4 / ip_ratio=1.40 / aq=1:1.00
Язык : Russian
Default : Да
Forced : Да

Аудио
Идентификатор : 2
Формат : AC-3
Формат/Информация : Audio Coding 3
Расширение режима : CM (complete main)
Идентификатор кодека : A_AC3
Продолжительность : 1 ч. 16 м.
Вид битрейта : Постоянный
Битрейт : 320 Кбит/сек
Каналы : 6 каналов
Расположение каналов : Front: L C R, Side: L R, LFE
Частота : 48,0 КГц
Битовая глубина : 16 бит
Метод сжатия : С потерями
Размер потока : 175 Мбайт (14%)
Язык : Russian
Default : Да
Forced : Да
Скриншоты:



Видеокодек: MPEG-4 AVC/H.264
Битрейт видео: ~2000 Kbps
Размер кадра: 1920х1080
Качество видео: BDRip
Аудиокодек: AC3 5.1
Битрейт аудио: 224 Kbps

Иван Царевич и Серый Волк

Год выпуска: 2011
Страна: Россия
Жанр: Детский, Рисованная анимация
Продолжительность: 01:25:58

Режиссер: Владимир Торопчин

Роли озвучивали:

Никита Ефремов (Иван, озвучка), Иван Охлобыстин (царь, озвучка),Артур Смольянинов (волк, озвучка), Лия Ахеджакова (Баба Яга, озвучка),Кристина Асмус (белка, озвучка), Виктор Сухоруков (первый министр, озвучка),Сергей Гармаш (Змей Горыныч, озвучка), Михаил Боярский (ученый кот, озвучка),Татьяна Бунина (Василиса, озвучка), Сергей Русскин (Кощей Бессмертный, озвучка),Елена Шульман (русалка, озвучка), Константин Бронзит (царь-император, озвучка)

Описание:

Увлекательная история от создателей богатырской трилогии, в которой героев русских народных сказок ждут новые приключения, опасности и забавные ситуации.

Общее
Уникальный идентификатор : 182020618281249943238248443459305109131 (0x88EFE55B4CBD27CD816A3C89F9FE768B)
Полное имя : Иван Царевич и Серый Волк.mkv
Формат : Matroska
Версия формата : Version 2
Размер файла : 1,35 Гбайт
Продолжительность : 1 ч. 25 м.
Общий поток : 2254 Кбит/сек
Название фильма : Иван Царевич и Серый Волк (rip by smithland)
Дата кодирования : UTC 2012-02-08 20:39:25
Программа кодирования : mkvmerge v5.2.1 ('A Far Off Place') built on Jan 2 2012 23:21:10
Библиотека кодирования : libebml v1.2.3 + libmatroska v1.3.0
Attachment : Yes

Видео
Идентификатор : 1
Формат : AVC
Формат/Информация : Advanced Video Codec
Профиль формата : High@L4.0
Параметр CABAC формата : Да
Параметр ReFrames формата : 4 кадра
Идентификатор кодека : V_MPEG4/ISO/AVC
Продолжительность : 1 ч. 25 м.
Битрейт : 2000 Кбит/сек
Ширина : 1920 пикселей
Высота : 1024 пикселя
Соотношение сторон : 16:9
Соотношение сторон в оригинале : 16:9
Режим частоты кадров : Переменный
Частота кадров : 23,976 кадра/сек
Цветовое пространство : YUV
Субдискретизация насыщенности : 4:2:0
Битовая глубина : 8 бит
Тип развёртки : Прогрессивная
Бит/(Пиксели*Кадры) : 0.042
Размер потока : 1,17 Гбайт (87%)
Библиотека кодирования : x264 core 120 r2146
Настройки программы : cabac=1 / ref=4 / deblock=1:-1:1 / analyse=0x3:0x133 / me=esa / subme=9 / psy=1 / psy_rd=1.50:0.50 / mixed_ref=0 / me_range=32 / chroma_me=1 / trellis=1 / 8x8dct=1 / cqm=0 / deadzone=21,11 / fast_pskip=1 / chroma_qp_offset=-4 / threads=6 / sliced_threads=0 / nr=0 / decimate=1 / interlaced=0 / bluray_compat=0 / constrained_intra=0 / bframes=4 / b_pyramid=2 / b_adapt=1 / b_bias=0 / direct=3 / weightb=1 / open_gop=1 / weightp=2 / keyint=230 / keyint_min=23 / scenecut=80 / intra_refresh=0 / rc_lookahead=40 / rc=abr / mbtree=1 / bitrate=2000 / ratetol=1.0 / qcomp=0.60 / qpmin=10 / qpmax=69 / qpstep=4 / vbv_maxrate=20000 / vbv_bufsize=20000 / nal_hrd=none / ip_ratio=1.40 / aq=1:1.00
Язык : Russian
Default : Да
Forced : Да

Аудио
Идентификатор : 2
Формат : AC-3
Формат/Информация : Audio Coding 3
Расширение режима : CM (complete main)
Идентификатор кодека : A_AC3
Продолжительность : 1 ч. 25 м.
Вид битрейта : Постоянный
Битрейт : 256 Кбит/сек
Каналы : 6 каналов
Расположение каналов : Front: L C R, Side: L R, LFE
Частота : 48,0 КГц
Битовая глубина : 16 бит
Метод сжатия : С потерями
Размер потока : 157 Мбайт (11%)
Язык : Russian
Default : Да
Forced : Да

Меню
00:00:00.000 : : 01
00:04:00.000 : : 02
00:08:00.000 : : 03
00:12:00.000 : : 04
00:16:00.000 : : 05
00:20:00.000 : : 06
00:24:00.000 : : 07
00:28:00.000 : : 08
00:32:00.000 : : 09
00:36:00.000 : : 10
00:40:00.000 : : 11
00:44:00.000 : : 12
00:48:00.000 : : 13
00:52:00.000 : : 14
00:56:00.000 : : 15
01:00:00.000 : : 16
01:04:00.000 : : 17
01:08:00.000 : : 18
01:12:00.000 : : 19
01:16:00.000 : : 20
01:20:00.000 : : 21
01:24:00.000 : : 22
Скриншоты:



Видеокодек: MPEG-4 AVC/H.264
Битрейт видео: ~2000 Kbps
Размер кадра: 1920х1024
Качество видео: BDRip
Аудиокодек: AC3 5.1
Битрейт аудио: 224 Kbps


Три богатыря на дальних берегах

Оригинальное название: Три богатыря на дальних берегах
Год выпуска: 2012
Производство: Россия, Кинокомпания СТВ, Студия Мельница
Жанр: Мультфильм, приключения, семейный
Продолжительность: 01:11:18

Режиссер: Константин Феоктистов

Персонажи:

Дмитрий Быковский-Ромашов (Илья Муромец, озвучка), Валерий Соловьев (Добрыня Никитич, озвучка), Олег Куликович (Алеша Попович, озвучка), Сергей Маковецкий (князь Киевский, озвучка), Дмитрий Высоцкий (конь Юлий, озвучка), Фёдор Бондарчук (барон Курдюк, озвучка), Елизавета Боярская (Баба Яга, озвучка), Мария Цветкова-Овсянникова (Алёнушка, озвучка), Елена Шульман (Настасья, озвучка), Лия Медведева (Любава, озвучка), Анатолий Петров (Тихон / Бекет, озвучка), Наталья Данилова (бабка, озвучка)

Описание:

На этот раз Алеша Попович, Добрыня Никитич и Илья Муромец, благодаря козням коварной Бабы Яги, оказываются за семью морями на острове, на котором живут туземцы и страшный Гомума. В их отсутствие купец Колыван решают вместе с Бабой-Ягой захватить царство и забрать власть у князя Киевского. На помощь незадачливому правителю приходит конь Юлий, а также жены богатырей и их многочисленные родственники. Словом, богатырей и зрителей ждут приключения на дальних берегах, обыкновенные и невероятные.

General
Unique ID : 217810255561823117806626263374536228267 (0xA3DCBAB5E7185980AA77483B1A09BDAB)
Complete name : Три богатыря на дальних берегах.mkv
Format : Matroska
Format version : Version 4 / Version 2
File size : 1.58 GiB
Duration : 1h 11mn
Overall bit rate : 3 176 Kbps
Movie name : Три богатыря на дальних берегах (rip by smithland)
Encoded date : UTC 2013-01-31 12:44:35
Writing application : mkvmerge v6.0.0 ('Coming Up For Air')
Writing library : libebml v1.3.0 + libmatroska v1.4.0
Attachment : Yes

Video
ID : 1
Format : AVC
Format/Info : Advanced Video Codec
Format profile : High@L4.0
Format settings, CABAC : Yes
Format settings, ReFrames : 4 frames
Codec ID : V_MPEG4/ISO/AVC
Duration : 1h 11mn
Bit rate : 3 000 Kbps
Width : 1 920 pixels
Height : 1 072 pixels
Display aspect ratio : 16:9
Frame rate mode : Constant
Frame rate : 23.976 fps
Color space : YUV
Chroma subsampling : 4:2:0
Bit depth : 8 bits
Scan type : Progressive
Bits/(Pixel*Frame) : 0.061
Stream size : 1.44 GiB (91%)
Writing library : x264 core 129 r2230
Encoding settings : cabac=1 / ref=4 / deblock=1:-1:0 / analyse=0x3:0x133 / me=esa / subme=9 / psy=1 / psy_rd=1.50:0.70 / mixed_ref=0 / me_range=24 / chroma_me=1 / trellis=1 / 8x8dct=1 / cqm=0 / deadzone=21,11 / fast_pskip=1 / chroma_qp_offset=-4 / threads=12 / lookahead_threads=2 / sliced_threads=0 / nr=0 / decimate=1 / interlaced=0 / bluray_compat=0 / constrained_intra=0 / bframes=4 / b_pyramid=2 / b_adapt=1 / b_bias=0 / direct=3 / weightb=1 / open_gop=1 / weightp=2 / keyint=230 / keyint_min=23 / scenecut=80 / intra_refresh=0 / rc_lookahead=40 / rc=abr / mbtree=1 / bitrate=3000 / ratetol=1.0 / qcomp=0.60 / qpmin=10 / qpmax=69 / qpstep=4 / vbv_maxrate=5000 / vbv_bufsize=5000 / nal_hrd=none / ip_ratio=1.40 / aq=1:1.00
Language : Russian
Default : Yes
Forced : Yes

Audio
ID : 2
Format : AC-3
Format/Info : Audio Coding 3
Mode extension : CM (complete main)
Format settings, Endianness : Big
Codec ID : A_AC3
Duration : 1h 11mn
Bit rate mode : Constant
Bit rate : 224 Kbps
Channel(s) : 6 channels
Channel positions : Front: L C R, Side: L R, LFE
Sampling rate : 48.0 KHz
Bit depth : 16 bits
Compression mode : Lossy
Delay relative to video : -5ms
Stream size : 114 MiB (7%)
Language : Russian
Default : Yes
Forced : Yes

Menu
00:00:00.000 : : 01
00:05:42.342 : : 02
00:10:39.597 : : 03
00:16:36.704 : : 04
00:24:05.861 : : 05
00:30:40.004 : : 06
00:35:16.364 : : 07
00:42:07.983 : : 08
00:49:30.759 : : 09
00:54:38.817 : : 10
01:00:39.761 : : 11
01:06:27.233 : : 12
01:11:18.107 : : 13
Видеокодек: MPEG-4 AVC/H.264
Битрейт видео: ~3000 Kbps
Размер кадра: 1920х1072
Качество видео: BDRip
Аудиокодек: AC3 5.1
Битрейт аудио: 224 Kbps

ВСЕ РЕЛИЗЫ

Алеша Попович и Тугарин Змей
Добрыня Никитич и Змей Горыныч
Илья Муромец и Соловей Разбойник
Три богатыря и Шамаханская царица
Иван Царевич и Серый Волк
Три богатыря на дальних берегах
Торрент перезалит 09.02.2013 , добавлен последний мультфильм
Время раздачи: с 12:00 - 22:00 МСК
[NNM-Club.ru]_Bogatyri.torrent
 Торрент: Платиновая раздача  Зарегистрирован
 
Скачать


 Зарегистрирован:   09 Фев 2013 20:05:54
 Размер:   9,19 GB  (
 Рейтинг:   4,8 (Голосов: 497)
 Поблагодарили:   1618
 Проверка:   Оформление проверено модератором 09 Фев 2013 21:56:03
Как cкачать  ·  Как раздать  ·  Правильно оформить  ·  Поднять ратио!  
ishtvirkutis
Стаж: 10 лет
Сообщений: 6
Ratio: 23,316
100%
confederate.gif
Автору респект,давно искал чтоб все вместе скачать .
Provod123
Стаж: 8 лет 9 мес.
Сообщений: 7
Ratio: 13,046
100%
Большое спасибо
svetlychok-2007
Стаж: 8 лет 3 мес.
Сообщений: 35
Ratio: 11,668
100%
ussr.gif
Спасибо огромное!!! :выпивают:
ramzanzan
Стаж: 7 лет 4 мес.
Сообщений: 10
Ratio: 5,238
33.73%
Спасибо
tarillas1
Стаж: 7 лет 11 мес.
Сообщений: 76
Ratio: 14,409
100%
ukraine.gif
Отлично!
antsolonin
Стаж: 7 лет 3 мес.
Сообщений: 4
Ratio: 30,351
95.29%
Давно хотел скачать все мульты! Спасибо!
Aleks753
Стаж: 7 лет 9 мес.
Сообщений: 4
Ratio: 0,299
100%
ОГРОМНОЕ спасибо!!! Автору респект и уважуха!
octavi
Стаж: 9 лет 8 мес.
Сообщений: 1
Ratio: 5,999
100%
Откуда: Киев
ukraine.gif
Огромное спасибо!
TOLJAN_160
Стаж: 9 лет 6 мес.
Сообщений: 4
Ratio: 11,793
100%
Большое спасибо !!!С Новым Годом !!!
al-tair-7
Стаж: 7 лет 1 мес.
Сообщений: 24
Ratio: 28,683
100%
От всей души спасибо!
С Новым Годом!!! :новый_год:
smithland ®
Стаж: 9 лет 6 мес.
Сообщений: 1707
Ratio: 45,427
Поблагодарили: 121372
67.84%
barbados.gif
Добавлен последний мульт !
Alex rus
Стаж: 9 лет 3 мес.
Сообщений: 41
Ratio: 12,122
100%
Откуда: От туда
ussr.gif
Спасибо :приветствую:
Warloc777
Стаж: 8 лет 2 мес.
Сообщений: 7
Ratio: 8,687
41.03%
Откуда: Крым
russia.gif
Спасибо ))))))

_________________
MS Windows 7 Ultimate 64-bit, Intel(R) Core(TM) J5-2500K CPU © 3.30GHz,Asus Maximus IV Gene-Z (s1155, Intel Z68, PCI-Ex16),
GeIL DDR3-2000 8192MB PC3-16000 (Kit of 2x4096) 8,0GB RAM, NVIDIA GeForce GTX 560 Ti
vladimigerma
Стаж: 8 лет 9 мес.
Сообщений: 1023
Ratio: 28,411
100%
russia.gif
Благодарю.
Показать сообщения:   
Начать новую тему   Ответить на тему    Торрент-трекер NNM-Club -> Мультфильмы -> Отечественные Мультфильмы (HD*Rip/LQ, DVDRip, SATRip, VHSRip) Часовой пояс: GMT + 3
Страницы:  1, 2, 3, 4  След.
Страница 1 из 4