Классический форум-трекер
canvas not supported
Нас вместе: 4 082 089

VA - Детские Песни (Созвездие Хитов 3 CD) (2004) [FLAC|Lossless]<Детские песни>


 
 
RSS
Начать новую тему   Ответить на тему    Торрент-трекер NNM-Club -> Аудио -> Музыка и песни для детей
Автор Сообщение
Николай Анатольевич ®
   
Почетный релизер
 
Стаж: 9 лет 10 мес.
Сообщений: 46540
Ratio: 10,185
Раздал: 7,446 TB
Поблагодарили: 2606877
100%
estonia.gif
VA - Детские Песни (Созвездие Хитов 3 CD) (2004) [FLAC|Lossless]<Детские песни>

Год: 2004
Жанр: Детские песни

Кодек: FLAC
Битрейт: Lossless
Продолжительность: 02:41:44
Продолжительность: 00:54:44

Трек лист:
01. Приходи, сказка (к/ф "Там, на неведомых дорожках") Ольга Рождественская
02. Расскажи снегурочка (м/ф "Ну, погоди") Клара Румянова и Анатолий Папанов
03. Чунга Чанга (м/ф "Катерок") Аида Ведищева, Анатолий Горохов
04. В траве сидел кузнечик (м/ф "Приключения Незнайки") Клара Румянова
05. Чебурашка (м/ф "Чебурашка") Клара Румянова
06. Песня крокодила Гены (м/ф "Чебурашка") Владимир Ферапонтов
07. Голубой вагон (м/ф "Чебурашка") Владимир Ферапонтов
08. Облака (м/ф "Трям! Здравствуйте") Клара Румянова
09. Улыбка (м/ф "Крошка Енот") Клара Румянова
10. Осьминожка (м/ф "Осьминожка") Клара Румянова
11. Точка, точка, запятая (из м/ф "Точка, точка, запятая")
12. Коробка с карандашами (м/ф "Коробка с карандашами") Григорий Гладков
13. А может быть ворона (м/ф "Пластилиновая ворона") Григорий Гладков
13. Большой секрет для маленькой компании (м/ф "Большой секрет") Сергей Никитин
15. Песня Винни-Пуха (м/ф "Винни-Пух и все-все-все") Евгений Леонов
16. Не ходите, дети, в Африку гулять (м/ф "Доктор Айболит") Семен Фарада
17. Песенка о лете (м/ф "Дед Мороз и лето") Большой детский хор Центрального телевидения и Всесоюзного радио
18. Танец маленьких утят Фольклорная группа Назарова, солист Кужалиев
19. Антошка (м/ф "Весёлая карусель") Мария Лукач
20. Песенка львёнка и черепахи (м/ф "Как львёнок и черепаха пели песню") Олег Анофриев
21. Песня мамонтёнка (м/ф "Мама для мамонтёнка") Клара Румянова
22. Настоящий друг (к/ф "Тимка и Димка") Клара Румянова
23. Песенка Умки (м/ф "Умка") Мария Коробейникова
24. Колыбельная медведицы (м/ф "Умка") Елена Камбурова
25. Спят усталые игрушки (т/п "Спокойной ночи, малыши") Олег Анофриев
Код:
Exact Audio Copy V0.99 prebeta 4 from 23. January 2008

Отчёт EAC об извлечении, выполненном 5. марта 2008, 16:52

Созвездие хитов / Детские песни vol.1

Дисковод: Optiarc DVD RW AD-7173A   Adapter: 3  ID: 1

Режим чтения                 : Достоверность
Использование точного потока : Да
Отключение кэша аудио        : Да
Использование указателей C2  : Нет

Коррекция смещения при чтении                     : 48
Способность читать области Lead-in и Lead-out     : Нет
Заполнение пропущенных сэмплов тишиной            : Да
Удаление блоков с тишиной в начале и конце        : Нет
При вычислениях CRC использовались нулевые сэмплы : Да
Интерфейс                                         : Встроенный Win32-интерфейс для Win NT/2000
Обработка зазоров                                 : Не обнаружено, добавлено к предыдущему треку

Выходной формат          : Пользовательский кодировщик
Выбранный битрейт        : 128 kBit/s
Качество                 : Высокий
Добавление ID3-тэга      : Да
Утилита сжатия           : D:\Program Files\FLAC\flac.exe
Дополнительные параметры : -8 -V -T "artist=%a" -T "title=%t" -T "album=%g" -T "date=%y" -T "tracknumber=%n" -T "genre=%m" -T comment="%e" -T "comment=abramovi4.RG" %s

TOC извлечённого CD

     Трек |   Старт  | Длительность | Начальный сектор | Конечный сектор
    ---------------------------------------------------------------------
       1  |  0:00.00 |    3:16.08   |           0      |      14707
       2  |  3:16.08 |    1:35.44   |       14708      |      21876
       3  |  4:51.52 |    2:14.56   |       21877      |      31982
       4  |  7:06.33 |    1:32.57   |       31983      |      38939
       5  |  8:39.15 |    1:31.65   |       38940      |      45829
       6  | 10:11.05 |    1:54.26   |       45830      |      54405
       7  | 12:05.31 |    3:21.29   |       54406      |      69509
       8  | 15:26.60 |    2:36.04   |       69510      |      81213
       9  | 18:02.64 |    2:17.61   |       81214      |      91549
      10  | 20:20.50 |    0:49.11   |       91550      |      95235
      11  | 21:09.61 |    1:44.59   |       95236      |     103094
      12  | 22:54.45 |    3:16.65   |      103095      |     117859
      13  | 26:11.35 |    4:25.01   |      117860      |     137735
      14  | 30:36.36 |    3:06.41   |      137736      |     151726
      15  | 33:43.02 |    0:54.27   |      151727      |     155803
      16  | 34:37.29 |    1:58.17   |      155804      |     164670
      17  | 36:35.46 |    1:25.14   |      164671      |     171059
      18  | 38:00.60 |    2:52.72   |      171060      |     184031
      19  | 40:53.57 |    2:14.06   |      184032      |     194087
      20  | 43:07.63 |    2:04.19   |      194088      |     203406
      21  | 45:12.07 |    2:00.72   |      203407      |     212478
      22  | 47:13.04 |    2:25.26   |      212479      |     223379
      23  | 49:38.30 |    1:08.22   |      223380      |     228501
      24  | 50:46.52 |    1:27.41   |      228502      |     235067
      25  | 52:14.18 |    2:28.38   |      235068      |     246205

Трек  1

     Имя файла D:\01 – Приходи, сказка.wav

     Пиковый уровень 94.4 %
     Качество трека 100.0 %
     CRC копии ED970364
     Трек не обнаружен в базе AccurateRip
     Копирование... OK

Трек  2

     Имя файла D:\02 – Расскажи снегурочка.wav

     Пиковый уровень 89.1 %
     Качество трека 100.0 %
     CRC копии 4CD6C0F2
     Трек не обнаружен в базе AccurateRip
     Копирование... OK

Трек  3

     Имя файла D:\03 – Чунга Чанга.wav

     Пиковый уровень 97.8 %
     Качество трека 100.0 %
     CRC копии B800740D
     Трек не обнаружен в базе AccurateRip
     Копирование... OK

Трек  4

     Имя файла D:\04 – В траве сидел кузнечик.wav

     Пиковый уровень 99.9 %
     Качество трека 100.0 %
     CRC копии 55C9149D
     Трек не обнаружен в базе AccurateRip
     Копирование... OK

Трек  5

     Имя файла D:\05 – Чебурашка.wav

     Пиковый уровень 98.4 %
     Качество трека 100.0 %
     CRC копии 4E6A92ED
     Трек не обнаружен в базе AccurateRip
     Копирование... OK

Трек  6

     Имя файла D:\06 – Песня крокодила Гены.wav

     Пиковый уровень 98.0 %
     Качество трека 100.0 %
     CRC копии 418BE4DF
     Трек не обнаружен в базе AccurateRip
     Копирование... OK

Трек  7

     Имя файла D:\07 – Голубой вагон.wav

     Пиковый уровень 93.0 %
     Качество трека 100.0 %
     CRC копии 5F69D392
     Трек не обнаружен в базе AccurateRip
     Копирование... OK

Трек  8

     Имя файла D:\08 – Облака.wav

     Пиковый уровень 98.8 %
     Качество трека 99.9 %
     CRC копии 24DDE5E0
     Трек не обнаружен в базе AccurateRip
     Копирование... OK

Трек  9

     Имя файла D:\09 – Улыбка.wav

     Пиковый уровень 94.4 %
     Качество трека 99.9 %
     CRC копии 9597CEAD
     Трек не обнаружен в базе AccurateRip
     Копирование... OK

Трек 10

     Имя файла D:\10 – Осьминожка.wav

     Пиковый уровень 99.1 %
     Качество трека 99.7 %
     CRC копии 1ABE079A
     Трек не обнаружен в базе AccurateRip
     Копирование... OK

Трек 11

     Имя файла D:\11 – Точка, точка, запятая.wav

     Пиковый уровень 99.3 %
     Качество трека 100.0 %
     CRC копии 1E2A70D5
     Трек не обнаружен в базе AccurateRip
     Копирование... OK

Трек 12

     Имя файла D:\12 – Коробка с карандашами.wav

     Пиковый уровень 99.2 %
     Качество трека 100.0 %
     CRC копии 2F715D60
     Трек не обнаружен в базе AccurateRip
     Копирование... OK

Трек 13

     Имя файла D:\13 – А может быть ворона.wav

     Пиковый уровень 88.9 %
     Качество трека 99.9 %
     CRC копии C85A9C4F
     Трек не обнаружен в базе AccurateRip
     Копирование... OK

Трек 14

     Имя файла D:\14 – Большой секрет для маленькой компании.wav

     Пиковый уровень 99.3 %
     Качество трека 100.0 %
     CRC копии 4C81F1E0
     Трек не обнаружен в базе AccurateRip
     Копирование... OK

Трек 15

     Имя файла D:\15 – Песня Винни-Пуха.wav

     Пиковый уровень 91.7 %
     Качество трека 100.0 %
     CRC копии 43268615
     Трек не обнаружен в базе AccurateRip
     Копирование... OK

Трек 16

     Имя файла D:\16 – Не ходите дети в африку гулять.wav

     Пиковый уровень 91.6 %
     Качество трека 99.9 %
     CRC копии FAEAD131
     Трек не обнаружен в базе AccurateRip
     Копирование... OK

Трек 17

     Имя файла D:\17 – Песенка о лете.wav

     Пиковый уровень 91.1 %
     Качество трека 100.0 %
     CRC копии AB08E7FA
     Трек не обнаружен в базе AccurateRip
     Копирование... OK

Трек 18

     Имя файла D:\18 – Танец маленьких утят.wav

     Пиковый уровень 94.4 %
     Качество трека 99.2 %
     CRC копии 41A9ACCC
     Трек не обнаружен в базе AccurateRip
     Копирование... OK

Трек 19

     Имя файла D:\19 – Антошка.wav

     Пиковый уровень 99.5 %
     Качество трека 100.0 %
     CRC копии 86F79078
     Трек не обнаружен в базе AccurateRip
     Копирование... OK

Трек 20

     Имя файла D:\20 – Песенка львенка и черепахи.wav

     Пиковый уровень 94.4 %
     Качество трека 100.0 %
     CRC копии BAB90DDC
     Трек не обнаружен в базе AccurateRip
     Копирование... OK

Трек 21

     Имя файла D:\21 – Песня мамонтенка.wav

     Пиковый уровень 99.4 %
     Качество трека 100.0 %
     CRC копии 89D26C01
     Трек не обнаружен в базе AccurateRip
     Копирование... OK

Трек 22

     Имя файла D:\22 – Настоящий друг.wav

     Пиковый уровень 94.4 %
     Качество трека 100.0 %
     CRC копии A174D202
     Трек не обнаружен в базе AccurateRip
     Копирование... OK

Трек 23

     Имя файла D:\23 – Песенка Умки.wav

     Пиковый уровень 89.1 %
     Качество трека 100.0 %
     CRC копии F2BBF5C3
     Трек не обнаружен в базе AccurateRip
     Копирование... OK

Трек 24

     Имя файла D:\24 – Колыбельная медведицы.wav

     Пиковый уровень 94.5 %
     Качество трека 100.0 %
     CRC копии 3BDFC4A2
     Трек не обнаружен в базе AccurateRip
     Копирование... OK

Трек 25

     Имя файла D:\25 – Спят усталые игрушки.wav

     Пиковый уровень 89.7 %
     Качество трека 100.0 %
     CRC копии DB0EB16F
     Трек не обнаружен в базе AccurateRip
     Копирование... OK

Ни одного трека нет в базе AccurateRip

Ошибок не произошло

Конец отчёта
Код:
-----------------------

DON'T MODIFY THIS FILE

-----------------------

PERFORMER: auCDtect Task Manager, ver. 1.5.1RC2 build 1.5.1.3
Copyright (c) 2008-2010 y-soft. All rights reserved
http://y-soft.org

ANALYZER: auCDtect: CD records authenticity detector, version 0.8.2
Copyright (c) 2004 Oleg Berngardt. All rights reserved.
Copyright (c) 2004 Alexander Djourik. All rights reserved.

FILE: 25 – Спят усталые игрушки.flac
  Size: 15394905 Hash: 6C1332C12283617A5F5972887627538E Accuracy: -m0
  Conclusion: CDDA 100%
  Signature: 7B91DF7733F219FB2B63DE865168C217D00FCECC
FILE: 24 – Колыбельная медведицы.flac
  Size: 7176885 Hash: 892D87C5F8EAA1B72172FB96D95909A8 Accuracy: -m0
  Conclusion: CDDA 100%
  Signature: FFDF0CC5F1D315C22C2CC5041C35CEEF0F7C8ECE
FILE: 23 – Песенка Умки.flac
  Size: 6529172 Hash: CCBA278F6CC3216084C2307F26517110 Accuracy: -m0
  Conclusion: CDDA 100%
  Signature: F1276E2EB51C62476050D533689EB7DEAC3849E9
FILE: 22 – Настоящий друг.flac
  Size: 14739256 Hash: 9EF34BFB873F2A30F05C3FD180D93BAF Accuracy: -m0
  Conclusion: CDDA 100%
  Signature: AB4062502F8601237B696C9AD8A87B4BD874DA5D
FILE: 21 – Песня мамонтенка.flac
  Size: 11079403 Hash: 5FA3C276959EF13ACF8ED387D1A8317B Accuracy: -m0
  Conclusion: CDDA 100%
  Signature: 03173BA2E71E932E5BE96E9040DC8C72C49424BE
FILE: 20 – Песенка львенка и черепахи.flac
  Size: 12053344 Hash: BCF2C976AFB56559385D73CBBE5D8BEB Accuracy: -m0
  Conclusion: CDDA 100%
  Signature: 0EFD3432CB58546134EB1FE98D5C2D882FECCC3B
FILE: 19 – Антошка.flac
  Size: 11923849 Hash: A6D5C86C9533D6943220C0275DC2965C Accuracy: -m0
  Conclusion: CDDA 100%
  Signature: 3C5C069FF32814DE8F7621D59C1FE690AFE88E17
FILE: 18 – Танец маленьких утят.flac
  Size: 19565703 Hash: 1F1DE67CDC31F018672B0F80F37CF710 Accuracy: -m0
  Conclusion: CDDA 100%
  Signature: CD28F61F02F824F76C90841007D8F4F7687DD6CE
FILE: 17 – Песенка о лете.flac
  Size: 8652891 Hash: 59F489BE92F0F69A22D4DC11227FEF6B Accuracy: -m0
  Conclusion: CDDA 100%
  Signature: 08B6B1021EE23D06D35AF3AFBB2322C1D453A032
FILE: 16 – Не ходите дети в африку гулять.flac
  Size: 10325759 Hash: AA55CA9517B74E5D0342125229D63BE8 Accuracy: -m0
  Conclusion: CDDA 43%
  Signature: 48118B6A4C42D0A598761E5C13FEB1E7A0583D9D
FILE: 15 – Песня Винни-Пуха.flac
  Size: 4838182 Hash: 9A3A0F4539EC0E0D8C49C98F20D9EF32 Accuracy: -m0
  Conclusion: CDDA 100%
  Signature: 7B86346E563F2E06CBBE5AD05B06D19BA5E58942
FILE: 14 – Большой секрет для маленькой компании.flac
  Size: 18194844 Hash: 1B5A9AA88862A9AD402BC303BBA9C11B Accuracy: -m0
  Conclusion: CDDA 100%
  Signature: 1E738306B3B1ED61B540812F01CC8F6E576D2FFB
FILE: 13 – А может быть ворона.flac
  Size: 26361607 Hash: 2C580EB460A54AB8613844423E128353 Accuracy: -m0
  Conclusion: CDDA 99%
  Signature: 8406539C579F3DD9125A2CADFC22BCAC076B0182
FILE: 12 – Коробка с карандашами.flac
  Size: 21870401 Hash: 5C3F2192CDC165118329DE5AF8091615 Accuracy: -m0
  Conclusion: CDDA 100%
  Signature: 37CAAF5E97F12FE35C8E80DE9798947D0C4DC290
FILE: 11 – Точка, точка, запятая.flac
  Size: 10927911 Hash: C1134E060D4C56BEA2525AE02890C918 Accuracy: -m0
  Conclusion: CDDA 100%
  Signature: F1E63A211204B68F323A675C296FBF2A102B41E7
FILE: 10 – Осьминожка.flac
  Size: 3719257 Hash: 077363CB2D99307D2827E72CE9543E39 Accuracy: -m0
  Conclusion: CDDA 100%
  Signature: BF4CD63014CC8A4BE1CFDB21C7897E19F94AB643
FILE: 09 – Улыбка.flac
  Size: 12996300 Hash: 8D24665649EB81B5E90325E8E0D985C7 Accuracy: -m0
  Conclusion: CDDA 100%
  Signature: 5E34403FB6AD6176A3414F035B117B98CFF423B5
FILE: 08 – Облака.flac
  Size: 15739916 Hash: 156A1ECB62B4CCEF274C55DCC28612B5 Accuracy: -m0
  Conclusion: CDDA 100%
  Signature: F5CA7DA1085B9EE0DA276D72EC9E31B8CF4632A8
FILE: 07 – Голубой вагон.flac
  Size: 17416741 Hash: 2B934E3C41DCB8822B773D35E0D3F9C7 Accuracy: -m0
  Conclusion: CDDA 100%
  Signature: BE2BAA5DD25A62B4EB83EBECBD1D5A70CFC95364
FILE: 06 – Песня крокодила Гены.flac
  Size: 6412219 Hash: 387A5F630A47B11A0D41E745D9E5AF35 Accuracy: -m0
  Conclusion: CDDA 100%
  Signature: BF2ECC5AD2A344FCB30A0F8F0E3591F2964C8A07
FILE: 05 – Чебурашка.flac
  Size: 8903006 Hash: 8EEA0FF57BED43D5DD0134E896CB3586 Accuracy: -m0
  Conclusion: CDDA 100%
  Signature: EF73A96CC12602384F70136FE906CB45C0A48421
FILE: 04 – В траве сидел кузнечик.flac
  Size: 9865620 Hash: BE8AACA0D2C2533A1DB399B682D369DF Accuracy: -m0
  Conclusion: CDDA 99%
  Signature: 0C2E2A67C989D7E4A75BB6DEAEB31F3629777F62
FILE: 03 – Чунга Чанга.flac
  Size: 11587908 Hash: CAC9FA82786A055F09565688073B5C42 Accuracy: -m0
  Conclusion: CDDA 99%
  Signature: 8F668890EBF6D6D6FAFD2CF8EFADA2ADC06B2A8D
FILE: 02 – Расскажи снегурочка.flac
  Size: 9583731 Hash: 8811C84DB1437727357ED1BE7DC81B14 Accuracy: -m0
  Conclusion: CDDA 100%
  Signature: 55224374E01AFD4653D5C90E4C346A4A813C7293
FILE: 01 – Приходи, сказка.flac
  Size: 13569481 Hash: A7BE3D045324A2CF1BBECB6604A3BBDE Accuracy: -m0
  Conclusion: CDDA 85%
  Signature: 84C922F77BDE204A8AABA6F29402D592C53884E2
Продолжительность: 00:57:54

Трек лист:
01. Мы к вам заехали на час (м/ф "Бременские музыканты") Вокальный ансамбль БДТ
02. Дуэт кота и пирата (м/ф "Голубой щенок") Андрей Миронов, Михаил Боярский
03. Песня диких гитар (к/ф "Новогодние приключения Маши и Вити") Михаил Боярский, В.Игнатьева, Г.Гладков
04. Диалог волка и козлят (к/ф "Волк и семеро козлят") Михаил Боярский, БДТ
05. Песня рыбы-пилы (м/ф "Голубой щенок") А.Градский
06. Песня друзей (м/ф "Бременские музыканты") О.Анофриев, А.Горохов
07. Буратино!!! (к/ф "Приключение Буратино") Н.Бродская
08. Песня Красной Шапочки (к/ф "Про Красную Шапочку") Оля Рождественская
09. Дорога добра (к/ф "Маленький Мук") Т.Рузавина, С.Таюшев
10. Я тебе конечно верю (к/ф "Большое Космическое приключение") Л.Берлинская, И.Капитанников, ВИА "Верные друзья"
11. Песня Белоснежки (к/ф "Новогодние приключения Маши и Вити") И.Борисова
12. Спор Маши и Вити о сказках (к/ф "Новогодние приключения Маши и Вити") Света Виноградова, Дима Голов
13. Дразнилка (м/ф "Голубой Щенок") Квартет "Улыбка"
14. Встреча с Печкой (к/ф "Новогодние приключения Маши и Вити") В.Игнатьева
15. В гостях у Бабы-яги (к/ф "Новогодние приключения Маши и Вити") В.Игнатьева
16. Песня гениального сыщика (м/ф "Бременские музыканты") Муслим Магомаев
17. Песня чёрного кота (м/ф "Голубой щенок") Андрей Миронов
18. Песня разбойников (м/ф "Бременские музыканты") О.Анофриев, А.Горохов
19. Песня кота и лисы (к/ф "Приключение Буратино") Р.Быков, Е.Санаева
20. Песня Карабаса Барабаса (к/ф "Приключение Буратино") В.Этуш
21. Говорят, мы бяки-буки (м/ф "Бременские музыканты") О.Анофриев
22. Песня Гай Гисборна (Из чего только сделаны мальчики)(м/ф "Робин Гуд") Е.Леонов
23. Заводные игрушки (к/ф "Приключения Электроника") Большой детский хор
24. Где водятся волшебники (к/ф "Незнайка с нашего двора") Е.Троян и Оркестр Госкино СССР, дирижер Э.Хачатурян
25. Крылатые качели (к/ф "Приключения Электроника") БДХ ЦТ и ВР
26. Лесной олень (к/ф "Ох, уж эта Настя") Аида Ведищева
27. Прекрасное далеко (к/ф "Гостья из будущего") Трио "Меридиан"
28. Колокола (к/ф "Приключения Электроника") БДХ ЦТ и ВР
Код:
Exact Audio Copy V0.99 prebeta 4 from 23. January 2008

Отчёт EAC об извлечении, выполненном 5. марта 2008, 22:46

Various / Детские песни vol.2

Дисковод: Optiarc DVD RW AD-7173A   Adapter: 3  ID: 1

Режим чтения                 : Достоверность
Использование точного потока : Да
Отключение кэша аудио        : Да
Использование указателей C2  : Нет

Коррекция смещения при чтении                     : 48
Способность читать области Lead-in и Lead-out     : Нет
Заполнение пропущенных сэмплов тишиной            : Да
Удаление блоков с тишиной в начале и конце        : Нет
При вычислениях CRC использовались нулевые сэмплы : Да
Интерфейс                                         : Встроенный Win32-интерфейс для Win NT/2000
Обработка зазоров                                 : Не обнаружено, добавлено к предыдущему треку

Выходной формат          : Пользовательский кодировщик
Выбранный битрейт        : 128 kBit/s
Качество                 : Высокий
Добавление ID3-тэга      : Да
Утилита сжатия           : D:\Program Files\FLAC\flac.exe
Дополнительные параметры : -8 -V -T "artist=%a" -T "title=%t" -T "album=%g" -T "date=%y" -T "tracknumber=%n" -T "genre=%m" -T comment="%e" -T "comment=abramovi4.RG" %s

TOC извлечённого CD

     Трек |   Старт  | Длительность | Начальный сектор | Конечный сектор
    ---------------------------------------------------------------------
       1  |  0:00.00 |    1:40.57   |           0      |       7556
       2  |  1:40.57 |    1:46.69   |        7557      |      15575
       3  |  3:27.51 |    1:28.55   |       15576      |      22230
       4  |  4:56.31 |    1:15.17   |       22231      |      27872
       5  |  6:11.48 |    1:22.52   |       27873      |      34074
       6  |  7:34.25 |    2:08.54   |       34075      |      43728
       7  |  9:43.04 |    2:15.28   |       43729      |      53881
       8  | 11:58.32 |    2:19.38   |       53882      |      64344
       9  | 14:17.70 |    2:10.05   |       64345      |      74099
      10  | 16:28.00 |    2:49.15   |       74100      |      86789
      11  | 19:17.15 |    1:16.51   |       86790      |      92540
      12  | 20:33.66 |    1:35.02   |       92541      |      99667
      13  | 22:08.68 |    1:24.02   |       99668      |     105969
      14  | 23:32.70 |    1:40.37   |      105970      |     113506
      15  | 25:13.32 |    2:09.66   |      113507      |     123247
      16  | 27:23.23 |    1:26.44   |      123248      |     129741
      17  | 28:49.67 |    1:50.00   |      129742      |     137991
      18  | 30:39.67 |    1:28.51   |      137992      |     144642
      19  | 32:08.43 |    2:55.19   |      144643      |     157786
      20  | 35:03.62 |    1:19.04   |      157787      |     163715
      21  | 36:22.66 |    1:57.46   |      163716      |     172536
      22  | 38:20.37 |    1:26.61   |      172537      |     179047
      23  | 39:47.23 |    2:03.34   |      179048      |     188306
      24  | 41:50.57 |    4:00.08   |      188307      |     206314
      25  | 45:50.65 |    3:14.30   |      206315      |     220894
      26  | 49:05.20 |    2:52.02   |      220895      |     233796
      27  | 51:57.22 |    3:13.39   |      233797      |     248310
      28  | 55:10.61 |    2:41.72   |      248311      |     260457

Трек  1

     Имя файла D:\01 – Мы к вам заехали на час.wav

     Пиковый уровень 98.5 %
     Качество трека 100.0 %
     CRC копии 1ADC134A
     Трек не обнаружен в базе AccurateRip
     Копирование... OK

Трек  2

     Имя файла D:\02 – Дуэт Кота и Пирата.wav

     Пиковый уровень 99.7 %
     Качество трека 99.9 %
     CRC копии 39964971
     Трек не обнаружен в базе AccurateRip
     Копирование... OK

Трек  3

     Имя файла D:\03 – Песня Диких Гитар.wav

     Пиковый уровень 98.9 %
     Качество трека 100.0 %
     CRC копии 7FCDA75D
     Трек не обнаружен в базе AccurateRip
     Копирование... OK

Трек  4

     Имя файла D:\04 – Диалог Волка и Козлят.wav

     Пиковый уровень 84.8 %
     Качество трека 100.0 %
     CRC копии 59246057
     Трек не обнаружен в базе AccurateRip
     Копирование... OK

Трек  5

     Имя файла D:\05 – Песня Рыбы-Пилы.wav

     Пиковый уровень 97.2 %
     Качество трека 99.8 %
     CRC копии 6612CEF8
     Трек не обнаружен в базе AccurateRip
     Копирование... OK

Трек  6

     Имя файла D:\06 – Песня друзей.wav

     Пиковый уровень 75.7 %
     Качество трека 100.0 %
     CRC копии AC582E6A
     Трек не обнаружен в базе AccurateRip
     Копирование... OK

Трек  7

     Имя файла D:\07 – Бу-ра-ти-но!!!.wav

     Пиковый уровень 99.5 %
     Качество трека 100.0 %
     CRC копии 6ED7609E
     Трек не обнаружен в базе AccurateRip
     Копирование... OK

Трек  8

     Имя файла D:\08 – Песня Красной Шапочки.wav

     Пиковый уровень 99.9 %
     Качество трека 100.0 %
     CRC копии 4B09DB3C
     Трек не обнаружен в базе AccurateRip
     Копирование... OK

Трек  9

     Имя файла D:\09 – Дорога добра.wav

     Пиковый уровень 99.4 %
     Качество трека 100.0 %
     CRC копии 44551718
     Трек не обнаружен в базе AccurateRip
     Копирование... OK

Трек 10

     Имя файла D:\10 – Я тебе конечно верю.wav

     Пиковый уровень 98.7 %
     Качество трека 100.0 %
     CRC копии 9A40774B
     Трек не обнаружен в базе AccurateRip
     Копирование... OK

Трек 11

     Имя файла D:\11 – Песня Белоснежки.wav

     Пиковый уровень 91.5 %
     Качество трека 100.0 %
     CRC копии ADB43666
     Трек не обнаружен в базе AccurateRip
     Копирование... OK

Трек 12

     Имя файла D:\12 – Спор Маши и Вити о сказках.wav

     Пиковый уровень 93.7 %
     Качество трека 100.0 %
     CRC копии F73D78AA
     Трек не обнаружен в базе AccurateRip
     Копирование... OK

Трек 13

     Имя файла D:\13 – Дразнилка.wav

     Пиковый уровень 99.6 %
     Качество трека 99.8 %
     CRC копии A44DC916
     Трек не обнаружен в базе AccurateRip
     Копирование... OK

Трек 14

     Имя файла D:\14 – Встреча с Печкой.wav

     Пиковый уровень 98.5 %
     Качество трека 100.0 %
     CRC копии 47AA415E
     Трек не обнаружен в базе AccurateRip
     Копирование... OK

Трек 15

     Имя файла D:\15 – В гостях у Бабы-Яги.wav

     Пиковый уровень 98.6 %
     Качество трека 100.0 %
     CRC копии 3EB33B4A
     Трек не обнаружен в базе AccurateRip
     Копирование... OK

Трек 16

     Имя файла D:\16 – Песня Гениального Сыщика.wav

     Пиковый уровень 99.2 %
     Качество трека 100.0 %
     CRC копии A57535AD
     Трек не обнаружен в базе AccurateRip
     Копирование... OK

Трек 17

     Имя файла D:\17 – Песня Черного Кота.wav

     Пиковый уровень 98.5 %
     Качество трека 100.0 %
     CRC копии 1DC07C37
     Трек не обнаружен в базе AccurateRip
     Копирование... OK

Трек 18

     Имя файла D:\18 – Песня разбойников.wav

     Пиковый уровень 99.9 %
     Качество трека 99.8 %
     CRC копии 4F252F3E
     Трек не обнаружен в базе AccurateRip
     Копирование... OK

Трек 19

     Имя файла D:\19 – Песня Кота и Лисы.wav

     Пиковый уровень 99.4 %
     Качество трека 100.0 %
     CRC копии B31A44E0
     Трек не обнаружен в базе AccurateRip
     Копирование... OK

Трек 20

     Имя файла D:\20 – Песня Карабаса-Барабаса.wav

     Пиковый уровень 99.9 %
     Качество трека 100.0 %
     CRC копии 20E58943
     Трек не обнаружен в базе AccurateRip
     Копирование... OK

Трек 21

     Имя файла D:\21 – Говорят, мы Бяки-Буки.wav

     Пиковый уровень 98.3 %
     Качество трека 100.0 %
     CRC копии 8315EFAA
     Трек не обнаружен в базе AccurateRip
     Копирование... OK

Трек 22

     Имя файла D:\22 – Из чего только сделаны мальчики....wav

     Пиковый уровень 99.6 %
     Качество трека 100.0 %
     CRC копии 73AE9790
     Трек не обнаружен в базе AccurateRip
     Копирование... OK

Трек 23

     Имя файла D:\23 – Заводные игрушки.wav

     Пиковый уровень 99.9 %
     Качество трека 100.0 %
     CRC копии F1538561
     Трек не обнаружен в базе AccurateRip
     Копирование... OK

Трек 24

     Имя файла D:\24 – Где водятся волшебники.wav

     Пиковый уровень 98.3 %
     Качество трека 100.0 %
     CRC копии 062805CF
     Трек не обнаружен в базе AccurateRip
     Копирование... OK

Трек 25

     Имя файла D:\25 – Крылатые качели.wav

     Пиковый уровень 98.4 %
     Качество трека 100.0 %
     CRC копии E812F83B
     Трек не обнаружен в базе AccurateRip
     Копирование... OK

Трек 26

     Имя файла D:\26 – Лесной олень.wav

     Пиковый уровень 99.5 %
     Качество трека 99.9 %
     CRC копии 16FB1ABA
     Трек не обнаружен в базе AccurateRip
     Копирование... OK

Трек 27

     Имя файла D:\27 – Прекрасное далеко.wav

     Пиковый уровень 99.8 %
     Качество трека 98.1 %
     CRC копии C4B2A094
     Трек не обнаружен в базе AccurateRip
     Копирование... OK

Трек 28

     Имя файла D:\28 – Колокола.wav

     Пиковый уровень 97.4 %
     Качество трека 98.0 %
     CRC копии 84482B6D
     Трек не обнаружен в базе AccurateRip
     Копирование... OK

Ни одного трека нет в базе AccurateRip

Ошибок не произошло

Конец отчёта
Код:
-----------------------

DON'T MODIFY THIS FILE

-----------------------

PERFORMER: auCDtect Task Manager, ver. 1.5.1RC2 build 1.5.1.3
Copyright (c) 2008-2010 y-soft. All rights reserved
http://y-soft.org

ANALYZER: auCDtect: CD records authenticity detector, version 0.8.2
Copyright (c) 2004 Oleg Berngardt. All rights reserved.
Copyright (c) 2004 Alexander Djourik. All rights reserved.

FILE: 28 – Колокола.flac
  Size: 17281445 Hash: EFD7D4F95EB3D516ED13A5CE5AB354C7 Accuracy: -m0
  Conclusion: CDDA 100%
  Signature: 64B7034C1E74BA42DCEA1AE28232FD7CC48AF805
FILE: 27 – Прекрасное далеко.flac
  Size: 20548308 Hash: 1223B74715E8925B197F434D94C27C1B Accuracy: -m0
  Conclusion: CDDA 100%
  Signature: 3C4D63B36C0EAD36EFFBE33689C127B157808E07
FILE: 26 – Лесной олень.flac
  Size: 16837457 Hash: 0573B1738F0E0ED4CDC7946518C979D4 Accuracy: -m0
  Conclusion: CDDA 100%
  Signature: 043F2DD8BD310F03AC3B3FE8BCF8D3358D53F32D
FILE: 25 – Крылатые качели.flac
  Size: 21015102 Hash: 241938CADBB2E13FC3CDD384955EB7B9 Accuracy: -m0
  Conclusion: CDDA 100%
  Signature: A7372F6A74A720F18F05A093B8A5B9C3AABCCE94
FILE: 24 – Где водятся волшебники.flac
  Size: 28637974 Hash: 1919EB6DE34F4EE52F88D97C87401456 Accuracy: -m0
  Conclusion: CDDA 100%
  Signature: 44B2A84A32EC06141A66061A0E0AAC2BBA78F766
FILE: 23 – Заводные игрушки.flac
  Size: 12375207 Hash: E3AA6A7249146327D769D7A7711E2AEC Accuracy: -m0
  Conclusion: CDDA 100%
  Signature: 825060273ADDF8EC3441DC94EC1C4667EBD3E374
FILE: 22 – Из чего только сделаны мальчики....flac
  Size: 8071187 Hash: 8E977CFA15FC3873DD0308FDA62E0F28 Accuracy: -m0
  Conclusion: MPEG 95%
  Signature: FFA732EC02343EBFC2E219B6A9C44297DD14AE2A
FILE: 21 – Говорят, мы Бяки-Буки.flac
  Size: 9446494 Hash: F8561B1F9D3134DEE0BDE03639670E20 Accuracy: -m0
  Conclusion: CDDA 100%
  Signature: F5A23C6B6FA3684156AD007334DDC6983A76FE77
FILE: 20 – Песня Карабаса-Барабаса.flac
  Size: 8025960 Hash: 14EFF78457FCCBE64F97F2C2CEBE6310 Accuracy: -m0
  Conclusion: MPEG 95%
  Signature: 84954EBF3A1F1D4BD99E75AA5CA45C1A1A084150
FILE: 19 – Песня Кота и Лисы.flac
  Size: 16402705 Hash: 7E5EDCB77424CF026D203974434AFB47 Accuracy: -m0
  Conclusion: MPEG 95%
  Signature: 823C0168F29046043C3FB373AED0F1904FA6D3C6
FILE: 18 – Песня разбойников.flac
  Size: 7903441 Hash: 9034388569B65F987374499F59449A13 Accuracy: -m0
  Conclusion: MPEG 95%
  Signature: 3C4BFF09B37DC0AA4474812CF61F0C558BEC884A
FILE: 17 – Песня Черного Кота.flac
  Size: 10052401 Hash: 106B16D610F7B0EF1BEFC7D74BD849A1 Accuracy: -m0
  Conclusion: MPEG 95%
  Signature: 791A017FB42F70E3807BE0C9768ABD25ACD16CF9
FILE: 16 – Песня Гениального Сыщика.flac
  Size: 7947763 Hash: 445A3AB5056FC6532062A406CF1F5440 Accuracy: -m0
  Conclusion: CDDA 100%
  Signature: 006401280A27BB68A8CFD16911602AC21951482C
FILE: 15 – В гостях у Бабы-Яги.flac
  Size: 14409567 Hash: DF59C34053EFFDBBB9F1929AA33718A4 Accuracy: -m0
  Conclusion: CDDA 100%
  Signature: D59E91B59373623541C8C8AA172562B7CABE89E9
FILE: 14 – Встреча с Печкой.flac
  Size: 9740199 Hash: 17DC7A1724E497ADF4EF4168C498C30C Accuracy: -m0
  Conclusion: CDDA 100%
  Signature: 51BD7D37E1403A783FBE7452E518F58E91E0C8EE
FILE: 13 – Дразнилка.flac
  Size: 9654424 Hash: 7B242B4A72EB3BCA2ED1FBA3F8A63483 Accuracy: -m0
  Conclusion: CDDA 100%
  Signature: 74CE3E31D753EABD9B4A0D33869EDC07EDD04F49
FILE: 12 – Спор Маши и Вити о сказках.flac
  Size: 10016103 Hash: 1213EBEA4ECA6FEC99EAAAE77C6521F0 Accuracy: -m0
  Conclusion: CDDA 100%
  Signature: 5C70AEFE0EFFA306B8870A0C1549F710C79CD6E0
FILE: 11 – Песня Белоснежки.flac
  Size: 7958427 Hash: 9427933BF65AFEC38ECE120CE497D03F Accuracy: -m0
  Conclusion: CDDA 100%
  Signature: C5F313604C887910B689C3C169007B9621F9FD21
FILE: 10 – Я тебе конечно верю.flac
  Size: 19161257 Hash: 184C617E63B82C88F7BECBD393093E26 Accuracy: -m0
  Conclusion: CDDA 100%
  Signature: 21248703DBB62282930DD696761F1C163114921D
FILE: 09 – Дорога добра.flac
  Size: 14059995 Hash: EC4876F8AA05381D14148BDF2777D95B Accuracy: -m0
  Conclusion: CDDA 54%
  Signature: DDE972D96710BCFCF011C80A042AA65CD2353F58
FILE: 08 – Песня Красной Шапочки.flac
  Size: 14298710 Hash: 8A6420C94A498747C69533E2A6D25AA5 Accuracy: -m0
  Conclusion: CDDA 100%
  Signature: BC5DBC5AE724543E1786F50D75B02DC134A04971
FILE: 07 – Бу-ра-ти-но!!!.flac
  Size: 12950389 Hash: 44C3430771A78A847A7D8B828A3240F1 Accuracy: -m0
  Conclusion: CDDA 99%
  Signature: BBE64C7980FD43128B2B426447A4165A2E99995F
FILE: 06 – Песня друзей.flac
  Size: 13341908 Hash: 3EB6AF5E8CE5D53FC122C47EAD83AF46 Accuracy: -m0
  Conclusion: CDDA 100%
  Signature: 98A728A953F493C35081E3E3E3462F0372DBD05C
FILE: 05 – Песня Рыбы-Пилы.flac
  Size: 8064157 Hash: CA23734BF1F26C310500A63A101C8C7A Accuracy: -m0
  Conclusion: MPEG 95%
  Signature: 6BD8429D2223DF76041EB496EE1F4E4C9479B15D
FILE: 04 – Диалог Волка и Козлят.flac
  Size: 7528256 Hash: CC1AFBB11BFBC7DB2E5859E0A2F27BFC Accuracy: -m0
  Conclusion: CDDA 100%
  Signature: 01244993E4696B335A99471C9EFA11C4134CDE77
FILE: 03 – Песня Диких Гитар.flac
  Size: 10329455 Hash: B901925791964067C19C2F78622FA5E8 Accuracy: -m0
  Conclusion: CDDA 100%
  Signature: C55D358B239072373FEB9EA3C47CA2EC22D0FBAE
FILE: 02 – Дуэт Кота и Пирата.flac
  Size: 10928561 Hash: BC941C0F0B1D1C9753391FB1176EE8B6 Accuracy: -m0
  Conclusion: CDDA 100%
  Signature: 674716D9B1E3BBE9CBE7053F410D9303118D1665
FILE: 01 – Мы к вам заехали на час.flac
  Size: 9138142 Hash: 725408E515C1950323E1E076A5517B86 Accuracy: -m0
  Conclusion: CDDA 43%
  Signature: 4F0EDF7A8FED5E22F2DA51656EA28189C04317ED
Продолжительность: 00:49:05

Трек лист:
01. Частушки бабок ёжек (м/ф "Летучий корабль") Московский Камерный хор
02. Песня водяного (м/ф "Летучий корабль") А.Папанов
03. Мы бандито-гангстерито (м/ф "Приключения капитана Врунгеля") В.Иваненко, вокальный ансамбль
04. Да здравствует сюрприз (м/ф "Незнайка с нашего двора") С.Стенченко, Е.Троян
05. Рыжий, рыжий, конопатый (м/ф "Рыжий, рыжий, конопатый") Разные исполнители
06. Песня паровозика (м/ф "Паровозик из Ромашково") К.Румянова
07. Человек собаке - друг (м/ф "Бобик в гостях у Барбоса") О.Табаков, Ю.Никулин
08. Песня Матроскина (м/ф "Трое из Простоквашино") О.Табаков
09. Кручу педали, кручу (м/ф "Прогулка кота Леопольда") А.Калягин
10. Хвост за хвост (м/ф "Прогулка кота Леопольда") А.Калягин
11. Песня Шапокляк (м/ф "Крокодил Гена") И.Мазинг
12. Мечта (м/ф "Летучий корабль") Михаил Боярский, Т.Шабельникова, Г.Бардин, Р.Суховерко
13. Луч солнца золотого (м/ф "Бременские музыканты") Муслим Магомаев
14. Песня Ванипечника (м/ф "Летучий корабль") Михаил Боярский
15. Песня царевны Забавы (м/ф "Летучий корабль") Т.Шабельникова
16. Куда ты, тропинка, меня привела (м/ф "Бременские музыканты") О.Анофриев
17. Песня Огуречика (м/ф "Приключения Огуречика") К.Румянова
18. Какой чудесный день (м/ф "Песенка мышонка") К.Румянова
19. Спи, моя радость, усни (м/ф "Верное средство") К.Румянова
20. Зарядка для хвоста (м/ф "38 попугаев") В.Ларионов
21. Ох, рано встаёт охрана (м/ф "Бременские музыканты") О.Анофриев
22. Песня Мери Поппинс (м/ф "Мери Поппинс, до свидания!") Т.Воронина
23. Дуэт глупого короля и прекрасной принцессы (м/ф "Бременские музыканты") Г.Гладков, Э.Жерздева
24. Лев и брадобрей (м/ф "Мери Поппинс, до свидания!") Т.Воронина, П.Смеян
25. Кабы не было зимы (м/ф "Трое из Простоквашино") В.Толкунова
Код:
Exact Audio Copy V0.99 prebeta 4 from 23. January 2008

Отчёт EAC об извлечении, выполненном 5. марта 2008, 20:19

Various / Детские песни vol.3

Дисковод: Optiarc DVD RW AD-7173A   Adapter: 3  ID: 1

Режим чтения                 : Достоверность
Использование точного потока : Да
Отключение кэша аудио        : Да
Использование указателей C2  : Нет

Коррекция смещения при чтении                     : 48
Способность читать области Lead-in и Lead-out     : Нет
Заполнение пропущенных сэмплов тишиной            : Да
Удаление блоков с тишиной в начале и конце        : Нет
При вычислениях CRC использовались нулевые сэмплы : Да
Интерфейс                                         : Встроенный Win32-интерфейс для Win NT/2000
Обработка зазоров                                 : Не обнаружено, добавлено к предыдущему треку

Выходной формат          : Пользовательский кодировщик
Выбранный битрейт        : 128 kBit/s
Качество                 : Высокий
Добавление ID3-тэга      : Да
Утилита сжатия           : D:\Program Files\FLAC\flac.exe
Дополнительные параметры : -8 -V -T "artist=%a" -T "title=%t" -T "album=%g" -T "date=%y" -T "tracknumber=%n" -T "genre=%m" -T comment="%e" -T "comment=abramovi4.RG" %s

TOC извлечённого CD

     Трек |   Старт  | Длительность | Начальный сектор | Конечный сектор
    ---------------------------------------------------------------------
       1  |  0:00.00 |    1:13.26   |           0      |       5500
       2  |  1:13.26 |    1:28.20   |        5501      |      12120
       3  |  2:41.46 |    2:45.53   |       12121      |      24548
       4  |  5:27.24 |    3:05.00   |       24549      |      38423
       5  |  8:32.24 |    2:21.45   |       38424      |      49043
       6  | 10:53.69 |    1:14.47   |       49044      |      54640
       7  | 12:08.41 |    2:14.53   |       54641      |      64743
       8  | 14:23.19 |    0:39.24   |       64744      |      67692
       9  | 15:02.43 |    2:52.18   |       67693      |      80610
      10  | 17:54.61 |    2:13.17   |       80611      |      90602
      11  | 20:08.03 |    1:13.73   |       90603      |      96150
      12  | 21:22.01 |    3:37.55   |       96151      |     112480
      13  | 24:59.56 |    2:31.41   |      112481      |     123846
      14  | 27:31.22 |    1:09.09   |      123847      |     129030
      15  | 28:40.31 |    1:36.30   |      129031      |     136260
      16  | 30:16.61 |    1:15.62   |      136261      |     141947
      17  | 31:32.48 |    1:52.07   |      141948      |     150354
      18  | 33:24.55 |    1:58.74   |      150355      |     159278
      19  | 35:23.54 |    1:45.41   |      159279      |     167194
      20  | 37:09.20 |    1:21.41   |      167195      |     173310
      21  | 38:30.61 |    1:28.65   |      173311      |     179975
      22  | 39:59.51 |    2:29.09   |      179976      |     191159
      23  | 42:28.60 |    1:29.02   |      191160      |     197836
      24  | 43:57.62 |    3:56.22   |      197837      |     215558
      25  | 47:54.09 |    1:09.43   |      215559      |     220776

Трек  1

     Имя файла D:\01 – Частушки Бабок Ежек.wav

     Пиковый уровень 99.9 %
     Качество трека 100.0 %
     CRC копии ACF5D1C4
     Трек не обнаружен в базе AccurateRip
     Копирование... OK

Ни одного трека нет в базе AccurateRip

Ошибок не произошло

Конец отчёта

------------------------------------------------------------

Exact Audio Copy V0.99 prebeta 4 from 23. January 2008

Отчёт EAC об извлечении, выполненном 5. марта 2008, 20:43

Various / Детские песни vol.3

Дисковод: Optiarc DVD RW AD-7173A   Adapter: 3  ID: 1

Режим чтения                 : Достоверность
Использование точного потока : Да
Отключение кэша аудио        : Да
Использование указателей C2  : Нет

Коррекция смещения при чтении                     : 48
Способность читать области Lead-in и Lead-out     : Нет
Заполнение пропущенных сэмплов тишиной            : Да
Удаление блоков с тишиной в начале и конце        : Нет
При вычислениях CRC использовались нулевые сэмплы : Да
Интерфейс                                         : Встроенный Win32-интерфейс для Win NT/2000
Обработка зазоров                                 : Не обнаружено, добавлено к предыдущему треку

Выходной формат          : Пользовательский кодировщик
Выбранный битрейт        : 128 kBit/s
Качество                 : Высокий
Добавление ID3-тэга      : Да
Утилита сжатия           : D:\Program Files\FLAC\flac.exe
Дополнительные параметры : -8 -V -T "artist=%a" -T "title=%t" -T "album=%g" -T "date=%y" -T "tracknumber=%n" -T "genre=%m" -T comment="%e" -T "comment=abramovi4.RG" %s

TOC извлечённого CD

     Трек |   Старт  | Длительность | Начальный сектор | Конечный сектор
    ---------------------------------------------------------------------
       1  |  0:00.00 |    1:13.26   |           0      |       5500
       2  |  1:13.26 |    1:28.20   |        5501      |      12120
       3  |  2:41.46 |    2:45.53   |       12121      |      24548
       4  |  5:27.24 |    3:05.00   |       24549      |      38423
       5  |  8:32.24 |    2:21.45   |       38424      |      49043
       6  | 10:53.69 |    1:14.47   |       49044      |      54640
       7  | 12:08.41 |    2:14.53   |       54641      |      64743
       8  | 14:23.19 |    0:39.24   |       64744      |      67692
       9  | 15:02.43 |    2:52.18   |       67693      |      80610
      10  | 17:54.61 |    2:13.17   |       80611      |      90602
      11  | 20:08.03 |    1:13.73   |       90603      |      96150
      12  | 21:22.01 |    3:37.55   |       96151      |     112480
      13  | 24:59.56 |    2:31.41   |      112481      |     123846
      14  | 27:31.22 |    1:09.09   |      123847      |     129030
      15  | 28:40.31 |    1:36.30   |      129031      |     136260
      16  | 30:16.61 |    1:15.62   |      136261      |     141947
      17  | 31:32.48 |    1:52.07   |      141948      |     150354
      18  | 33:24.55 |    1:58.74   |      150355      |     159278
      19  | 35:23.54 |    1:45.41   |      159279      |     167194
      20  | 37:09.20 |    1:21.41   |      167195      |     173310
      21  | 38:30.61 |    1:28.65   |      173311      |     179975
      22  | 39:59.51 |    2:29.09   |      179976      |     191159
      23  | 42:28.60 |    1:29.02   |      191160      |     197836
      24  | 43:57.62 |    3:56.22   |      197837      |     215558
      25  | 47:54.09 |    1:09.43   |      215559      |     220776

Трек  1

     Имя файла D:\01 – Частушки Бабок Ежек.wav

     Пиковый уровень 99.9 %
     Качество трека 100.0 %
     CRC копии ACF5D1C4
     Трек не обнаружен в базе AccurateRip
     Копирование... OK

Трек  2

     Имя файла D:\02 – Песня Водяного.wav

     Пиковый уровень 99.9 %
     Качество трека 100.0 %
     CRC копии 67A05CC0
     Трек не обнаружен в базе AccurateRip
     Копирование... OK

Трек  3

     Имя файла D:\03 – Мы бандито-гангстерито.wav

     Пиковый уровень 99.9 %
     Качество трека 99.9 %
     CRC копии 85F22AD8
     Трек не обнаружен в базе AccurateRip
     Копирование... OK

Трек  4

     Имя файла D:\04 – Да здравствует сюрприз.wav

     Пиковый уровень 99.9 %
     Качество трека 100.0 %
     CRC копии 9C8A6599
     Трек не обнаружен в базе AccurateRip
     Копирование... OK

Трек  5

     Имя файла D:\05 – Рыжий, рыжий, конопатый.wav

     Пиковый уровень 99.9 %
     Качество трека 100.0 %
     CRC копии 84D38711
     Трек не обнаружен в базе AccurateRip
     Копирование... OK

Трек  6

     Имя файла D:\06 – Песня паровозика.wav

     Пиковый уровень 99.7 %
     Качество трека 100.0 %
     CRC копии DB195451
     Трек не обнаружен в базе AccurateRip
     Копирование... OK

Трек  7

     Имя файла D:\07 – Человек собаке друг.wav

     Пиковый уровень 99.9 %
     Качество трека 100.0 %
     CRC копии 1FBCFB2A
     Трек не обнаружен в базе AccurateRip
     Копирование... OK

Трек  8

     Имя файла D:\08 – Песня Матроскина.wav

     Пиковый уровень 99.4 %
     Качество трека 100.0 %
     CRC копии 318E9C78
     Трек не обнаружен в базе AccurateRip
     Копирование... OK

Трек  9

     Имя файла D:\09 – Кручу педали, кручу.wav

     Пиковый уровень 99.9 %
     Качество трека 100.0 %
     CRC копии CBB0F68A
     Трек не обнаружен в базе AccurateRip
     Копирование... OK

Трек 10

     Имя файла D:\10 – Хвост за хвост.wav

     Пиковый уровень 99.9 %
     Качество трека 100.0 %
     CRC копии FE19962D
     Трек не обнаружен в базе AccurateRip
     Копирование... OK

Трек 11

     Имя файла D:\11 – Песня Шапокляк.wav

     Пиковый уровень 99.8 %
     Качество трека 100.0 %
     CRC копии 4075B0AE
     Трек не обнаружен в базе AccurateRip
     Копирование... OK

Трек 12

     Имя файла D:\12 – Мечта.wav

     Пиковый уровень 99.9 %
     Качество трека 100.0 %
     CRC копии 8EFA8B29
     Трек не обнаружен в базе AccurateRip
     Копирование... OK

Трек 13

     Имя файла D:\13 – Луч солнца золотого.wav

     Пиковый уровень 99.8 %
     Качество трека 100.0 %
     CRC копии 8D5BD466
     Трек не обнаружен в базе AccurateRip
     Копирование... OK

Трек 14

     Имя файла D:\14 – Песня Вани-печника.wav

     Пиковый уровень 99.8 %
     Качество трека 100.0 %
     CRC копии 17F416B8
     Трек не обнаружен в базе AccurateRip
     Копирование... OK

Трек 15

     Имя файла D:\15 – Песня царевны Забавы.wav

     Пиковый уровень 99.8 %
     Качество трека 100.0 %
     CRC копии B2B4464A
     Трек не обнаружен в базе AccurateRip
     Копирование... OK

Трек 16

     Имя файла D:\16 – Куда ты, тропинка, меня привела.wav

     Пиковый уровень 99.9 %
     Качество трека 100.0 %
     CRC копии 2CEEF2AE
     Трек не обнаружен в базе AccurateRip
     Копирование... OK

Трек 17

     Имя файла D:\17 – Песня Огуречика.wav

     Пиковый уровень 99.8 %
     Качество трека 100.0 %
     CRC копии 2AFA5E62
     Трек не обнаружен в базе AccurateRip
     Копирование... OK

Трек 18

     Имя файла D:\18 – Какой чудесный день.wav

     Пиковый уровень 99.9 %
     Качество трека 100.0 %
     CRC копии D45D87BA
     Трек не обнаружен в базе AccurateRip
     Копирование... OK

Трек 19

     Имя файла D:\19 – Спи, моя радость, усни.wav

     Пиковый уровень 99.8 %
     Качество трека 100.0 %
     CRC копии 810A10AB
     Трек не обнаружен в базе AccurateRip
     Копирование... OK

Трек 20

     Имя файла D:\20 – Песня про зарядку.wav

     Пиковый уровень 99.9 %
     Качество трека 100.0 %
     CRC копии 79BE1B07
     Трек не обнаружен в базе AccurateRip
     Копирование... OK

Трек 21

     Имя файла D:\21 – Ох, рано встает охрана.wav

     Пиковый уровень 99.8 %
     Качество трека 100.0 %
     CRC копии A0676092
     Трек не обнаружен в базе AccurateRip
     Копирование... OK

Трек 22

     Имя файла D:\22 – Песня Мери Поппинс.wav

     Пиковый уровень 99.9 %
     Качество трека 100.0 %
     CRC копии 1801B960
     Трек не обнаружен в базе AccurateRip
     Копирование... OK

Трек 23

     Имя файла D:\23 – Дуэт глупого короля и прекрасной принцессы.wav

     Пиковый уровень 99.9 %
     Качество трека 100.0 %
     CRC копии 22F5A57E
     Трек не обнаружен в базе AccurateRip
     Копирование... OK

Трек 24

     Имя файла D:\24 – Лев и брадобрей.wav

     Пиковый уровень 99.9 %
     Качество трека 100.0 %
     CRC копии 7D7D4702
     Трек не обнаружен в базе AccurateRip
     Копирование... OK

Трек 25

     Имя файла D:\25 – Кабы не было зимы.wav

     Пиковый уровень 99.9 %
     Качество трека 100.0 %
     CRC копии C0D4CA18
     Трек не обнаружен в базе AccurateRip
     Копирование... OK

Ни одного трека нет в базе AccurateRip

Ошибок не произошло

Конец отчёта
Код:
-----------------------

DON'T MODIFY THIS FILE

-----------------------

PERFORMER: auCDtect Task Manager, ver. 1.5.1RC2 build 1.5.1.3
Copyright (c) 2008-2010 y-soft. All rights reserved
http://y-soft.org

ANALYZER: auCDtect: CD records authenticity detector, version 0.8.2
Copyright (c) 2004 Oleg Berngardt. All rights reserved.
Copyright (c) 2004 Alexander Djourik. All rights reserved.

FILE: 25 – Кабы не было зимы.flac
  Size: 7527820 Hash: 7C73C20AEAF8D9B943D3D3520451CCDB Accuracy: -m0
  Conclusion: CDDA 43%
  Signature: 8CEEBAF54F098883EBEFC4CF47AABF6AF3E40BE9
FILE: 24 – Лев и брадобрей.flac
  Size: 26270804 Hash: 82CE29DA35891374D91A75151FD479FA Accuracy: -m0
  Conclusion: CDDA 100%
  Signature: 1829A5BD97E3EBE2FB9E7A0163FD877E2517FBF7
FILE: 23 – Дуэт глупого короля и прекрасной принцессы.flac
  Size: 10233225 Hash: 1875D7C59A38C18218B672ED9D442A03 Accuracy: -m0
  Conclusion: MPEG 95%
  Signature: 8FAA39A10BBC5116C4EF26157006102EE7BF5E4B
FILE: 22 – Песня Мери Поппинс.flac
  Size: 16972406 Hash: C77DF1D044B5F022F7B792FFD327CCC4 Accuracy: -m0
  Conclusion: MPEG 89%
  Signature: 152226DFC1C77A23C21CEFC197D734A2E071A2D6
FILE: 21 – Ох, рано встает охрана.flac
  Size: 8760089 Hash: 5C5B86B59D7B35F9543427DD43B02F13 Accuracy: -m0
  Conclusion: MPEG 91%
  Signature: F1031CCCF10ABE80DF4A0455C6D56E17D4C7F999
FILE: 20 – Песня про зарядку.flac
  Size: 8566170 Hash: DA97EC59F43939B6C9E5DB8CBC574A70 Accuracy: -m0
  Conclusion: MPEG 95%
  Signature: E8A9E1D97354A1F965B6C051F1BBA9763B6C4756
FILE: 19 – Спи, моя радость, усни.flac
  Size: 9158425 Hash: 65C9B0C3284F2722886A7A6C5850A1E7 Accuracy: -m0
  Conclusion: CDDA 100%
  Signature: 5B7D2CBF5D73FA93D4CF45122D44EB0E1C4BBD15
FILE: 18 – Какой чудесный день.flac
  Size: 12626588 Hash: BE39A9B66A3739A202DA656D27DDEE85 Accuracy: -m0
  Conclusion: CDDA 100%
  Signature: 54D871F0F7AE8111FA372DB63D00FB6597F9E5D8
FILE: 17 – Песня Огуречика.flac
  Size: 11642017 Hash: 815EC29E8863C16250BDE2F50AB8EF57 Accuracy: -m0
  Conclusion: CDDA 100%
  Signature: 8831D266BA9C864BCD76D17A54A178E0A0FB7C64
FILE: 16 – Куда ты, тропинка, меня привела.flac
  Size: 7343765 Hash: 8D45AAF84EB81A20B36AA9F5AA14BE36 Accuracy: -m0
  Conclusion: MPEG 95%
  Signature: 52D563B591995FA5CBFD0B4737EE047189E17B6B
FILE: 15 – Песня царевны Забавы.flac
  Size: 9084618 Hash: 71CBDAD9282BDF9FE27A4660AC93C6D1 Accuracy: -m0
  Conclusion: CDDA 86%
  Signature: 7C8435C4FB07EDF0225975A310764AEE562B782C
FILE: 14 – Песня Вани-печника.flac
  Size: 6685195 Hash: B29606E59A72C4DE881B8AEEC48C8F5F Accuracy: -m0
  Conclusion: MPEG 95%
  Signature: 51A810D83B4A2CCB0EA3013F5097E8614A8AB534
FILE: 13 – Луч солнца золотого.flac
  Size: 14328999 Hash: 507F3329EC30C2B3B0463485C96925F4 Accuracy: -m0
  Conclusion: CDDA 99%
  Signature: 361A1B80488DAC4FCC5CD3E4E90A3568FB186466
FILE: 12 – Мечта.flac
  Size: 21958261 Hash: BAD33BBA5410F78E333546C1AE4DC141 Accuracy: -m0
  Conclusion: MPEG 95%
  Signature: C849FA1BE0D474F161BA95F7CEAD7FC2C1747B30
FILE: 11 – Песня Шапокляк.flac
  Size: 6467822 Hash: 7929E49377B8DCC028AB14CAECBA57FD Accuracy: -m0
  Conclusion: MPEG 89%
  Signature: 53219FE9EE14BBA5F7795C082A03E27F0BE259F4
FILE: 10 – Хвост за хвост.flac
  Size: 16214105 Hash: FA1F56ACD715C71CCC04646D1F538147 Accuracy: -m0
  Conclusion: CDDA 100%
  Signature: D713FEECF4FB302D470C3039AED623F07D29C13E
FILE: 09 – Кручу педали, кручу.flac
  Size: 21151503 Hash: C54CB39D5793CA17C2E495239775A557 Accuracy: -m0
  Conclusion: CDDA 100%
  Signature: CAD372A566AD4696FF21ECB7F24DDB183BE14565
FILE: 08 – Песня Матроскина.flac
  Size: 4038439 Hash: EA46C6A7A1ECB430E4D8CBA700E83BB0 Accuracy: -m0
  Conclusion: CDDA 99%
  Signature: 931F67D4EEC55DB3F48713CC87E48EEAAD26808A
FILE: 07 – Человек собаке друг.flac
  Size: 13263937 Hash: E953A5C91396D1FEC2E95D09CF03C8B9 Accuracy: -m0
  Conclusion: CDDA 100%
  Signature: 559D634D3CD1739BBCD600E3B2FCB5224846816E
FILE: 06 – Песня паровозика.flac
  Size: 8320143 Hash: 01E661B4922F0CC1CBA0802F67E9C215 Accuracy: -m0
  Conclusion: CDDA 100%
  Signature: B75C1BF708FFA566ABFDD17C293CB2D638C72D81
FILE: 05 – Рыжий, рыжий, конопатый.flac
  Size: 14177678 Hash: 7754999E96A84355E0A9EB326F2C642F Accuracy: -m0
  Conclusion: CDDA 99%
  Signature: 57178B0154F61C7712159573D8EB618C2A3FEF6D
FILE: 04 – Да здравствует сюрприз.flac
  Size: 22873191 Hash: C35552D5E3AC3A557F07DC336BCC99CF Accuracy: -m0
  Conclusion: CDDA 100%
  Signature: BCF1E6A22988A3443BB802274C02B741A84BB839
FILE: 03 – Мы бандито-гангстерито.flac
  Size: 19955545 Hash: 6EC2898C0940D570E65528286B182000 Accuracy: -m0
  Conclusion: CDDA 100%
  Signature: 263993BAADD0FF816944DCEBC8A74D2B39187260
FILE: 02 – Песня Водяного.flac
  Size: 9064245 Hash: AAC659CCFD4B6C3A445D7817940E7EA1 Accuracy: -m0
  Conclusion: CDDA 100%
  Signature: C959D085FA8447A0519A85F92CF1C586FB1CE172
FILE: 01 – Частушки Бабок Ежек.flac
  Size: 8385263 Hash: 572814956C8798D9A3B04EC333417A87 Accuracy: -m0
  Conclusion: MPEG 95%
  Signature: B0BD39DF6FD38F9A2A953FA522181A6939FD84C8
Время раздачи: 9.00 - 23.00 (по мере возможности...)
[NNM-Club.ru]_VA - Detskie Pesni (Sozvezdie Hitov 3 CD) (2004) [FLAC].torrent
 Торрент: Платиновая раздача  Зарегистрирован
 
Скачать


Примагнититься
 Зарегистрирован:   02 Июн 2012 09:08:28
 Размер:   941 MB  (
 Рейтинг:   4,9 (Голосов: 20)
 Поблагодарили:   98
 Проверка:   Оформление проверено модератором 02 Июн 2012 10:48:02
Как cкачать  ·  Как раздать  ·  Правильно оформить  ·  Поднять ратио!  
Николай Анатольевич ®
   
Почетный релизер
 
Стаж: 9 лет 10 мес.
Сообщений: 46540
Ratio: 10,185
Раздал: 7,446 TB
Поблагодарили: 2606877
100%
estonia.gif
VA - Детские Песни (Созвездие Хитов 3 CD) (2004) [MP3|320 kbps]<Детские песни>
johns_mith
Стаж: 9 лет 5 мес.
Сообщений: 101
Ratio: 19,048
100%
Огромное спасибо! Жаль, что "ковриков" нет... Одни спектрограммы...
stroybars
Стаж: 6 лет 3 мес.
Сообщений: 20
Ratio: 76,324
100%
russia.gif
Большое спасибо за раздачу! Отличное качество на всех дисках!!!

_________________
Понять людей не сложно, сложно понять их правильно.
Показать сообщения:   
Начать новую тему   Ответить на тему    Торрент-трекер NNM-Club -> Аудио -> Музыка и песни для детей Часовой пояс: GMT + 3
Страница 1 из 1