Классический форум-трекер
canvas not supported
Нас вместе: 4 081 630

Будильник ( 26 выпусков ) (1977-1989) SATRip


 
 
RSS
Начать новую тему   Ответить на тему    Торрент-трекер NNM-Club -> Видео -> Развивающее Видео для детей
Автор Сообщение
эксклюзив ®
Стаж: 8 лет 7 мес.
Сообщений: 1169
Ratio: 159,795
Поблагодарили: 75202
100%
Будильник ( 26 выпусков ) (1977-1989) SATRip
Русское название: Будильник
Год выпуска: 1977-1989
Выпущено: СССР
Жанр: Детский

Описание фильма:
Просыпаться утром от настойчивого звонка будильника не всегда приятно. Но это в будни. А вот в воскресенье – совсем другое дело. Каждое воскресное утро в 9.30 в телеэфир выходила передача «Будильник».

На экране (в мультзаставке 70-х – 1984 гг.) солнышко щекотало лучами конопатого мальчишку, похожего на героев «Ералаша», и нетрудно было поверить словам песенки в исполнении группы «Самоцветы»:

Прекрасно, если вам с утра
Воскликнуть хочется «ура» –
Кричите на здоровье и не спорьте!
Когда со скукой вы враги,
Вставайте хоть с любой ноги –
Вам это настроенья не испортит.
Когда заглянет к вам рассвет
И скажет весело: «Привет!»,
А птичий хор подхватит вашу песню,
То все на свете станет интересней!

«Будильник» – одна из старейших детских передач на советском телевидении. Ее первый выпуск появился 3 октября 1965 года. Сначала она предназначалась детям всех возрастов, позднее, когда число детских программ увеличилось, коллективу, работавшему над программой, было велено сузить возрастные рамки и делать передачу «для пионеров». Но ее с одинаковым интересом смотрели и большие, и маленькие.

Продолжительность: 26 x ~ 00:29:00
Качество видео: SATRip

Видеокодек: DivX 4, DivX 5, XviD
Битрейт видео: ~1700 kb/s
Размер кадра: 480x368, 496x368, 512x388, 640x480, 672x504, 720x544, 720x576
Аудиокодек: MP3, AC-3 ( 1 ch, 2 ch )
Битрейт аудио: 64 kb/s, 96 kb/s, 128 kb/s, 196 kb/s
Сценарий и внешний вид студии постоянно менялись, ведущими передачи были Надежда Румянцева, Валентина Леонтьева или приглашенные актеры (Александр Абдулов, Евгений Леонов, Ирина Муравьева, Виталий Соломин, Елена Шанина и многие другие). В программе разыгрывались небольшие спектакли, театральные постановки стихов Маршака, Барто, Михалкова и т.д., выступали детские коллективы. Любимым эпизодом было «мультлото» – ведущие раскладывали конверты с присланными заявками на мультфильмы и выбирали тот, который сегодня увидят зрители – как в популярной передаче «Спортлото».

В 1984 году заставка изменилась – теперь «Будильник» начинался с мультфильма Александра Татарского, со смешными мини-приключениями и превращениями героев – толстенького круглого будильника и забавного петуха, – и песней на музыку Григория Гладкова, слова которой очень точно пересказывали содержание передачи:

«Будильник» - это полчаса
На песни и рассказы,
«Будильник» - это голоса
Любимых наших сказок.
Раздумья, удивления,
Смешные представления,
Кино и чуде-чудеса –
И все за полчаса!
Время даром не теряем,
В праздник двери отворяем,
Здесь не скучно никому,
Потому что потому!

Появление этой заставки не обошлось без неизбежного для советского телевещания вмешательства цензоров. Александр Татарский рассказывал, что после скандала с мультфильмом «Падал прошлогодний снег» на телевидении придирались к каждой мелочи: «…мы делали одну из последних работ – заставку к передаче «Будильник». Там летал Будильник, персонажик такой. Они увидели, что у него в одной сцене ротик напоминает латинскую букву «S», и эти кадры вырезали. Я говорю: ну хорошо, напоминает латинскую букву «S». А почему нельзя? А потому, что латинская буква «S» напоминает знак доллара».

В 1989 году программу переименовали – она стала называться «С утра пораньше». Но вскоре на нашем телевидении наступило «смутное время», и эта передача перестала существовать.
Общее
Полное имя : G:\Будильник.1977-1989.XviD.SATRip.avi\Budilnik 10_XviD.avi
Формат : AVI
Формат/Информация : Audio Video Interleave
Размер файла : 408 Мбайт
Продолжительность : 29 м.
Общий поток : 1912 Кбит/сек
Программа кодирования : VirtualDubMod 1.5.10.2 (build 2540/release)
Библиотека кодирования : VirtualDubMod build 2540/release

Видео
Идентификатор : 0
Формат : MPEG-4 Visual
Профиль формата : Advanced Simple@L5
Параметр BVOP формата : 2
Параметр QPel формата : Нет
Параметр GMC формата : Без точки перехода
Параметр матрицы формата : Default (H.263)
Идентификатор кодека : XVID
Идентификатор кодека/Подсказка : XviD
Продолжительность : 29 м.
Битрейт : 1820 Кбит/сек
Ширина : 720 пикс.
Высота : 544 пикс.
Соотношение сторон : 4:3
Частота кадров : 25,000 кадр/сек
Цветовое пространство : YUV
Подвыборка цветности : 4:2:0
Битовая глубина : 8 бит
Тип развёртки : Прогрессивная
Метод сжатия : С потерями
Бит/(Пиксели*Кадры) : 0.186
Размер потока : 388 Мбайт (95%)
Библиотека кодирования : XviD 1.2.0.dev47 (UTC 2006-11-01)

Аудио
Идентификатор : 1
Формат : MPEG Audio
Версия формата : Version 1
Профиль формата : Layer 3
Режим : Joint stereo
Расширение режима : MS Stereo
Идентификатор кодека : 55
Идентификатор кодека/Подсказка : MP3
Продолжительность : 29 м.
Вид битрейта : Переменный
Битрейт : 81,8 Кбит/сек
Номинальный битрейт : 96,0 Кбит/сек
Канал(ы) : 2 канала(ов)
Частота : 32,0 КГц
Метод сжатия : С потерями
Размер потока : 17,4 Мбайт (4%)
Выравнивание : Соединение по промежуткам
Продолжительность промежутка : 36 мс. (0,90 видеокадр)
Время предзагрузки промежутка : 538 ms
Библиотека кодирования : LAME3.98r
Настройки программы : -m j -V 4 -q 2 -lowpass 15.1 --abr 96

Общее
Полное имя : G:\Будильник.1977-1989.XviD.SATRip.avi\Budilnik 11_XviD.avi
Формат : AVI
Формат/Информация : Audio Video Interleave
Размер файла : 399 Мбайт
Продолжительность : 29 м.
Общий поток : 1911 Кбит/сек
Программа кодирования : VirtualDubMod 1.5.4.1 (build 2178/release)
Библиотека кодирования : VirtualDubMod build 2178/release

Видео
Идентификатор : 0
Формат : MPEG-4 Visual
Параметр BVOP формата : Нет
Параметр QPel формата : Нет
Параметр GMC формата : Без точки перехода
Параметр матрицы формата : Default (H.263)
Идентификатор кодека : DX50
Идентификатор кодека/Подсказка : DivX 5
Продолжительность : 29 м.
Битрейт : 1816 Кбит/сек
Ширина : 720 пикс.
Высота : 544 пикс.
Соотношение сторон : 4:3
Частота кадров : 25,000 кадр/сек
Цветовое пространство : YUV
Подвыборка цветности : 4:2:0
Битовая глубина : 8 бит
Тип развёртки : Прогрессивная
Метод сжатия : С потерями
Бит/(Пиксели*Кадры) : 0.185
Размер потока : 380 Мбайт (95%)
Библиотека кодирования : DivX 5.2.1 (DrDivX 106) (UTC 2004-09-08)

Аудио
Идентификатор : 1
Формат : MPEG Audio
Версия формата : Version 1
Профиль формата : Layer 3
Режим : Joint stereo
Расширение режима : MS Stereo
Идентификатор кодека : 55
Идентификатор кодека/Подсказка : MP3
Продолжительность : 29 м.
Вид битрейта : Переменный
Битрейт : 84,3 Кбит/сек
Номинальный битрейт : 96,0 Кбит/сек
Канал(ы) : 2 канала(ов)
Частота : 32,0 КГц
Метод сжатия : С потерями
Размер потока : 17,6 Мбайт (4%)
Выравнивание : Соединение по промежуткам
Продолжительность промежутка : 36 мс. (0,90 видеокадр)
Время предзагрузки промежутка : 457 ms
Библиотека кодирования : LAME3.98r
Настройки программы : -m j -V 4 -q 2 -lowpass 15.1 --abr 96
Язык : Russian

Общее
Полное имя : G:\Будильник.1977-1989.XviD.SATRip.avi\Budilnik 12_XviD.avi
Формат : AVI
Формат/Информация : Audio Video Interleave
Размер файла : 399 Мбайт
Продолжительность : 29 м.
Общий поток : 1917 Кбит/сек
Программа кодирования : VirtualDubMod 1.5.4.1 (build 2178/release)
Библиотека кодирования : VirtualDubMod build 2178/release

Видео
Идентификатор : 0
Формат : MPEG-4 Visual
Параметр BVOP формата : Нет
Параметр QPel формата : Нет
Параметр GMC формата : Без точки перехода
Параметр матрицы формата : Default (H.263)
Идентификатор кодека : DX50
Идентификатор кодека/Подсказка : DivX 5
Продолжительность : 29 м.
Битрейт : 1823 Кбит/сек
Ширина : 720 пикс.
Высота : 544 пикс.
Соотношение сторон : 4:3
Частота кадров : 25,000 кадр/сек
Цветовое пространство : YUV
Подвыборка цветности : 4:2:0
Битовая глубина : 8 бит
Тип развёртки : Прогрессивная
Метод сжатия : С потерями
Бит/(Пиксели*Кадры) : 0.186
Размер потока : 379 Мбайт (95%)
Библиотека кодирования : DivX 5.2.1 (DrDivX 106) (UTC 2004-09-08)

Аудио
Идентификатор : 1
Формат : MPEG Audio
Версия формата : Version 1
Профиль формата : Layer 3
Режим : Joint stereo
Расширение режима : MS Stereo
Идентификатор кодека : 55
Идентификатор кодека/Подсказка : MP3
Продолжительность : 29 м.
Вид битрейта : Переменный
Битрейт : 83,5 Кбит/сек
Номинальный битрейт : 96,0 Кбит/сек
Канал(ы) : 2 канала(ов)
Частота : 32,0 КГц
Метод сжатия : С потерями
Размер потока : 17,4 Мбайт (4%)
Выравнивание : Соединение по промежуткам
Продолжительность промежутка : 36 мс. (0,90 видеокадр)
Время предзагрузки промежутка : 386 ms
Библиотека кодирования : LAME3.98r
Настройки программы : -m j -V 4 -q 2 -lowpass 15.1 --abr 96
Язык : Russian

Общее
Полное имя : G:\Будильник.1977-1989.XviD.SATRip.avi\Budilnik 13_XviD.avi
Формат : AVI
Формат/Информация : Audio Video Interleave
Размер файла : 178 Мбайт
Продолжительность : 26 м.
Общий поток : 954 Кбит/сек
Библиотека кодирования : VirtualDub-MPEG2 build 24586/release

Видео
Идентификатор : 0
Формат : MPEG-4 Visual
Параметр BVOP формата : 1
Параметр QPel формата : Нет
Параметр GMC формата : Без точки перехода
Параметр матрицы формата : Default (H.263)
Режим смешивания : Сжатый битовый поток
Идентификатор кодека : DX50
Идентификатор кодека/Подсказка : DivX 5
Продолжительность : 26 м.
Битрейт : 816 Кбит/сек
Ширина : 672 пикс.
Высота : 504 пикс.
Соотношение сторон : 4:3
Частота кадров : 25,000 кадр/сек
Цветовое пространство : YUV
Подвыборка цветности : 4:2:0
Битовая глубина : 8 бит
Тип развёртки : Прогрессивная
Метод сжатия : С потерями
Бит/(Пиксели*Кадры) : 0.096
Размер потока : 153 Мбайт (86%)
Библиотека кодирования : DivX 6.7.0 (UTC 2007-09-20)

Аудио
Идентификатор : 1
Формат : MPEG Audio
Версия формата : Version 1
Профиль формата : Layer 3
Режим : Joint stereo
Расширение режима : MS Stereo
Идентификатор кодека : 55
Идентификатор кодека/Подсказка : MP3
Продолжительность : 26 м.
Вид битрейта : Постоянный
Битрейт : 128 Кбит/сек
Канал(ы) : 2 канала(ов)
Частота : 48,0 КГц
Метод сжатия : С потерями
Размер потока : 24,0 Мбайт (13%)
Выравнивание : Разделение по промежуткам
Продолжительность промежутка : 40 мс. (1,00 видеокадр)
Время предзагрузки промежутка : 500 ms

Общее
Полное имя : G:\Будильник.1977-1989.XviD.SATRip.avi\Budilnik 14_XviD.avi
Формат : AVI
Формат/Информация : Audio Video Interleave
Размер файла : 388 Мбайт
Продолжительность : 38 м.
Общий поток : 1404 Кбит/сек
Библиотека кодирования : VirtualDub-MPEG2 build 23685/release

Видео
Идентификатор : 0
Формат : MPEG-4 Visual
Профиль формата : Advanced Simple@L5
Параметр BVOP формата : 2
Параметр QPel формата : Нет
Параметр GMC формата : Без точки перехода
Параметр матрицы формата : Default (MPEG)
Режим смешивания : Сжатый битовый поток
Идентификатор кодека : XVID
Идентификатор кодека/Подсказка : XviD
Продолжительность : 38 м.
Битрейт : 1298 Кбит/сек
Ширина : 512 пикс.
Высота : 388 пикс.
Соотношение сторон : 4:3
Частота кадров : 25,000 кадр/сек
Цветовое пространство : YUV
Подвыборка цветности : 4:2:0
Битовая глубина : 8 бит
Тип развёртки : Прогрессивная
Метод сжатия : С потерями
Бит/(Пиксели*Кадры) : 0.261
Размер потока : 358 Мбайт (92%)
Библиотека кодирования : XviD 1.0.3 (UTC 2004-12-20)

Аудио
Идентификатор : 1
Формат : MPEG Audio
Версия формата : Version 1
Профиль формата : Layer 3
Режим : Joint stereo
Расширение режима : MS Stereo
Идентификатор кодека : 55
Идентификатор кодека/Подсказка : MP3
Продолжительность : 38 м.
Вид битрейта : Постоянный
Битрейт : 96,0 Кбит/сек
Канал(ы) : 2 канала(ов)
Частота : 32,0 КГц
Метод сжатия : С потерями
Размер потока : 26,5 Мбайт (7%)
Выравнивание : Разделение по промежуткам
Продолжительность промежутка : 40 мс. (1,00 видеокадр)
Время предзагрузки промежутка : 500 ms

Общее
Полное имя : G:\Будильник.1977-1989.XviD.SATRip.avi\Budilnik 15_XviD.avi
Формат : AVI
Формат/Информация : Audio Video Interleave
Размер файла : 399 Мбайт
Продолжительность : 28 м.
Общий поток : 1968 Кбит/сек
Программа кодирования : VirtualDubMod 1.5.4.1 (build 2178/release)
Библиотека кодирования : VirtualDubMod build 2178/release

Видео
Идентификатор : 0
Формат : MPEG-4 Visual
Параметр BVOP формата : Нет
Параметр QPel формата : Нет
Параметр GMC формата : Без точки перехода
Параметр матрицы формата : Default (H.263)
Идентификатор кодека : DX50
Идентификатор кодека/Подсказка : DivX 5
Продолжительность : 28 м.
Битрейт : 1875 Кбит/сек
Ширина : 720 пикс.
Высота : 544 пикс.
Соотношение сторон : 4:3
Частота кадров : 25,000 кадр/сек
Цветовое пространство : YUV
Подвыборка цветности : 4:2:0
Битовая глубина : 8 бит
Тип развёртки : Прогрессивная
Метод сжатия : С потерями
Бит/(Пиксели*Кадры) : 0.191
Размер потока : 381 Мбайт (95%)
Библиотека кодирования : DivX 5.2.1 (DrDivX 106) (UTC 2004-09-08)

Аудио
Идентификатор : 1
Формат : MPEG Audio
Версия формата : Version 1
Профиль формата : Layer 3
Режим : Joint stereo
Расширение режима : MS Stereo
Идентификатор кодека : 55
Идентификатор кодека/Подсказка : MP3
Продолжительность : 28 м.
Вид битрейта : Переменный
Битрейт : 82,9 Кбит/сек
Номинальный битрейт : 96,0 Кбит/сек
Канал(ы) : 2 канала(ов)
Частота : 32,0 КГц
Метод сжатия : С потерями
Размер потока : 16,8 Мбайт (4%)
Выравнивание : Соединение по промежуткам
Продолжительность промежутка : 36 мс. (0,90 видеокадр)
Время предзагрузки промежутка : 521 ms
Библиотека кодирования : LAME3.98r
Настройки программы : -m j -V 4 -q 2 -lowpass 15.1 --abr 96
Язык : Russian

Общее
Полное имя : G:\Будильник.1977-1989.XviD.SATRip.avi\Budilnik 16_XviD.avi
Формат : AVI
Формат/Информация : Audio Video Interleave
Размер файла : 399 Мбайт
Продолжительность : 29 м.
Общий поток : 1919 Кбит/сек
Программа кодирования : VirtualDubMod 1.5.4.1 (build 2178/release)
Библиотека кодирования : VirtualDubMod build 2178/release

Видео
Идентификатор : 0
Формат : MPEG-4 Visual
Параметр BVOP формата : Нет
Параметр QPel формата : Нет
Параметр GMC формата : Без точки перехода
Параметр матрицы формата : Default (H.263)
Идентификатор кодека : DX50
Идентификатор кодека/Подсказка : DivX 5
Продолжительность : 29 м.
Битрейт : 1826 Кбит/сек
Ширина : 720 пикс.
Высота : 544 пикс.
Соотношение сторон : 4:3
Частота кадров : 25,000 кадр/сек
Цветовое пространство : YUV
Подвыборка цветности : 4:2:0
Битовая глубина : 8 бит
Тип развёртки : Прогрессивная
Метод сжатия : С потерями
Бит/(Пиксели*Кадры) : 0.186
Размер потока : 380 Мбайт (95%)
Библиотека кодирования : DivX 5.2.1 (DrDivX 106) (UTC 2004-09-08)

Аудио
Идентификатор : 1
Формат : MPEG Audio
Версия формата : Version 1
Профиль формата : Layer 3
Режим : Joint stereo
Расширение режима : MS Stereo
Идентификатор кодека : 55
Идентификатор кодека/Подсказка : MP3
Продолжительность : 29 м.
Вид битрейта : Переменный
Битрейт : 82,8 Кбит/сек
Номинальный битрейт : 96,0 Кбит/сек
Канал(ы) : 2 канала(ов)
Частота : 32,0 КГц
Метод сжатия : С потерями
Размер потока : 17,2 Мбайт (4%)
Выравнивание : Соединение по промежуткам
Продолжительность промежутка : 36 мс. (0,90 видеокадр)
Время предзагрузки промежутка : 403 ms
Библиотека кодирования : LAME3.98r
Настройки программы : -m j -V 4 -q 2 -lowpass 15.1 --abr 96
Язык : Russian

Общее
Полное имя : G:\Будильник.1977-1989.XviD.SATRip.avi\Budilnik 17_XviD.avi
Формат : AVI
Формат/Информация : Audio Video Interleave
Размер файла : 399 Мбайт
Продолжительность : 29 м.
Общий поток : 1861 Кбит/сек
Программа кодирования : VirtualDubMod 1.5.4.1 (build 2178/release)
Библиотека кодирования : VirtualDubMod build 2178/release

Видео
Идентификатор : 0
Формат : MPEG-4 Visual
Параметр BVOP формата : Нет
Параметр QPel формата : Нет
Параметр GMC формата : Без точки перехода
Параметр матрицы формата : Default (H.263)
Идентификатор кодека : DX50
Идентификатор кодека/Подсказка : DivX 5
Продолжительность : 29 м.
Битрейт : 1769 Кбит/сек
Ширина : 720 пикс.
Высота : 544 пикс.
Соотношение сторон : 4:3
Частота кадров : 25,000 кадр/сек
Цветовое пространство : YUV
Подвыборка цветности : 4:2:0
Битовая глубина : 8 бит
Тип развёртки : Прогрессивная
Метод сжатия : С потерями
Бит/(Пиксели*Кадры) : 0.181
Размер потока : 379 Мбайт (95%)
Библиотека кодирования : DivX 5.2.1 (DrDivX 106) (UTC 2004-09-08)

Аудио
Идентификатор : 1
Формат : MPEG Audio
Версия формата : Version 1
Профиль формата : Layer 3
Режим : Joint stereo
Расширение режима : MS Stereo
Идентификатор кодека : 55
Идентификатор кодека/Подсказка : MP3
Продолжительность : 29 м.
Вид битрейта : Переменный
Битрейт : 82,1 Кбит/сек
Номинальный битрейт : 96,0 Кбит/сек
Канал(ы) : 2 канала(ов)
Частота : 32,0 КГц
Метод сжатия : С потерями
Размер потока : 17,6 Мбайт (4%)
Выравнивание : Соединение по промежуткам
Продолжительность промежутка : 36 мс. (0,90 видеокадр)
Время предзагрузки промежутка : 385 ms
Библиотека кодирования : LAME3.98r
Настройки программы : -m j -V 4 -q 2 -lowpass 15.1 --abr 96
Язык : Russian

Общее
Полное имя : G:\Будильник.1977-1989.XviD.SATRip.avi\Budilnik 18_XviD.avi
Формат : AVI
Формат/Информация : Audio Video Interleave
Размер файла : 399 Мбайт
Продолжительность : 29 м.
Общий поток : 1924 Кбит/сек
Программа кодирования : VirtualDubMod 1.5.4.1 (build 2178/release)
Библиотека кодирования : VirtualDubMod build 2178/release

Видео
Идентификатор : 0
Формат : MPEG-4 Visual
Параметр BVOP формата : Нет
Параметр QPel формата : Нет
Параметр GMC формата : Без точки перехода
Параметр матрицы формата : Default (H.263)
Идентификатор кодека : DX50
Идентификатор кодека/Подсказка : DivX 5
Продолжительность : 29 м.
Битрейт : 1832 Кбит/сек
Ширина : 720 пикс.
Высота : 544 пикс.
Соотношение сторон : 4:3
Частота кадров : 25,000 кадр/сек
Цветовое пространство : YUV
Подвыборка цветности : 4:2:0
Битовая глубина : 8 бит
Тип развёртки : Прогрессивная
Метод сжатия : С потерями
Бит/(Пиксели*Кадры) : 0.187
Размер потока : 380 Мбайт (95%)
Библиотека кодирования : DivX 5.2.1 (DrDivX 106) (UTC 2004-09-08)

Аудио
Идентификатор : 1
Формат : MPEG Audio
Версия формата : Version 1
Профиль формата : Layer 3
Режим : Joint stereo
Расширение режима : MS Stereo
Идентификатор кодека : 55
Идентификатор кодека/Подсказка : MP3
Продолжительность : 29 м.
Вид битрейта : Переменный
Битрейт : 81,9 Кбит/сек
Номинальный битрейт : 96,0 Кбит/сек
Канал(ы) : 2 канала(ов)
Частота : 32,0 КГц
Метод сжатия : С потерями
Размер потока : 17,0 Мбайт (4%)
Выравнивание : Соединение по промежуткам
Продолжительность промежутка : 36 мс. (0,90 видеокадр)
Время предзагрузки промежутка : 506 ms
Библиотека кодирования : LAME3.98r
Настройки программы : -m j -V 4 -q 2 -lowpass 15.1 --abr 96
Язык : Russian

Общее
Полное имя : G:\Будильник.1977-1989.XviD.SATRip.avi\Budilnik 19_XviD.avi
Формат : AVI
Формат/Информация : Audio Video Interleave
Размер файла : 399 Мбайт
Продолжительность : 30 м.
Общий поток : 1858 Кбит/сек
Программа кодирования : VirtualDubMod 1.5.4.1 (build 2178/release)
Библиотека кодирования : VirtualDubMod build 2178/release

Видео
Идентификатор : 0
Формат : MPEG-4 Visual
Параметр BVOP формата : Нет
Параметр QPel формата : Нет
Параметр GMC формата : Без точки перехода
Параметр матрицы формата : Default (H.263)
Идентификатор кодека : DX50
Идентификатор кодека/Подсказка : DivX 5
Продолжительность : 30 м.
Битрейт : 1768 Кбит/сек
Ширина : 720 пикс.
Высота : 544 пикс.
Соотношение сторон : 4:3
Частота кадров : 25,000 кадр/сек
Цветовое пространство : YUV
Подвыборка цветности : 4:2:0
Битовая глубина : 8 бит
Тип развёртки : Прогрессивная
Метод сжатия : С потерями
Бит/(Пиксели*Кадры) : 0.181
Размер потока : 380 Мбайт (95%)
Библиотека кодирования : DivX 5.2.1 (DrDivX 106) (UTC 2004-09-08)

Аудио
Идентификатор : 1
Формат : MPEG Audio
Версия формата : Version 1
Профиль формата : Layer 3
Режим : Joint stereo
Расширение режима : MS Stereo
Идентификатор кодека : 55
Идентификатор кодека/Подсказка : MP3
Продолжительность : 30 м.
Вид битрейта : Переменный
Битрейт : 80,0 Кбит/сек
Номинальный битрейт : 96,0 Кбит/сек
Канал(ы) : 2 канала(ов)
Частота : 32,0 КГц
Метод сжатия : С потерями
Размер потока : 17,2 Мбайт (4%)
Выравнивание : Соединение по промежуткам
Продолжительность промежутка : 36 мс. (0,90 видеокадр)
Время предзагрузки промежутка : 457 ms
Библиотека кодирования : LAME3.98r
Настройки программы : -m j -V 4 -q 2 -lowpass 15.1 --abr 96
Язык : Russian

Общее
Полное имя : G:\Будильник.1977-1989.XviD.SATRip.avi\Budilnik 1_DivX.avi
Формат : AVI
Формат/Информация : Audio Video Interleave
Размер файла : 400 Мбайт
Продолжительность : 29 м.
Общий поток : 1892 Кбит/сек
Программа кодирования : VirtualDubMod 1.5.4.1 (build 2178/release)
Библиотека кодирования : VirtualDubMod build 2178/release

Видео
Идентификатор : 0
Формат : MPEG-4 Visual
Параметр BVOP формата : 1
Параметр QPel формата : Нет
Параметр GMC формата : Без точки перехода
Параметр матрицы формата : Default (H.263)
Режим смешивания : Сжатый битовый поток
Идентификатор кодека : DX50
Идентификатор кодека/Подсказка : DivX 5
Продолжительность : 29 м.
Битрейт : 1793 Кбит/сек
Ширина : 496 пикс.
Высота : 368 пикс.
Соотношение сторон : 4:3
Частота кадров : 25,000 кадр/сек
Цветовое пространство : YUV
Подвыборка цветности : 4:2:0
Битовая глубина : 8 бит
Тип развёртки : Прогрессивная
Метод сжатия : С потерями
Бит/(Пиксели*Кадры) : 0.393
Размер потока : 379 Мбайт (95%)
Библиотека кодирования : DivX 6.8.3-6.8.4 (UTC 2008-06-07)

Аудио
Идентификатор : 1
Формат : MPEG Audio
Версия формата : Version 1
Профиль формата : Layer 3
Режим : Joint stereo
Расширение режима : MS Stereo
Идентификатор кодека : 55
Идентификатор кодека/Подсказка : MP3
Продолжительность : 29 м.
Вид битрейта : Переменный
Битрейт : 88,5 Кбит/сек
Номинальный битрейт : 96,0 Кбит/сек
Канал(ы) : 2 канала(ов)
Частота : 32,0 КГц
Метод сжатия : С потерями
Размер потока : 18,7 Мбайт (5%)
Выравнивание : Соединение по промежуткам
Продолжительность промежутка : 36 мс. (0,90 видеокадр)
Время предзагрузки промежутка : 507 ms
Библиотека кодирования : LAME3.97
Настройки программы : -m j -V 4 -q 2 -lowpass 15.1 --abr 96

Общее
Полное имя : G:\Будильник.1977-1989.XviD.SATRip.avi\Budilnik 20_XviD.avi
Формат : AVI
Формат/Информация : Audio Video Interleave
Размер файла : 399 Мбайт
Продолжительность : 29 м.
Общий поток : 1902 Кбит/сек
Программа кодирования : VirtualDubMod 1.5.4.1 (build 2178/release)
Библиотека кодирования : VirtualDubMod build 2178/release

Видео
Идентификатор : 0
Формат : MPEG-4 Visual
Параметр BVOP формата : Нет
Параметр QPel формата : Нет
Параметр GMC формата : Без точки перехода
Параметр матрицы формата : Default (H.263)
Идентификатор кодека : DX50
Идентификатор кодека/Подсказка : DivX 5
Продолжительность : 29 м.
Битрейт : 1809 Кбит/сек
Ширина : 720 пикс.
Высота : 544 пикс.
Соотношение сторон : 4:3
Частота кадров : 25,000 кадр/сек
Цветовое пространство : YUV
Подвыборка цветности : 4:2:0
Битовая глубина : 8 бит
Тип развёртки : Прогрессивная
Метод сжатия : С потерями
Бит/(Пиксели*Кадры) : 0.185
Размер потока : 380 Мбайт (95%)
Библиотека кодирования : DivX 5.2.1 (DrDivX 106) (UTC 2004-09-08)

Аудио
Идентификатор : 1
Формат : MPEG Audio
Версия формата : Version 1
Профиль формата : Layer 3
Режим : Joint stereo
Расширение режима : MS Stereo
Идентификатор кодека : 55
Идентификатор кодека/Подсказка : MP3
Продолжительность : 29 м.
Вид битрейта : Переменный
Битрейт : 82,7 Кбит/сек
Номинальный битрейт : 96,0 Кбит/сек
Канал(ы) : 2 канала(ов)
Частота : 32,0 КГц
Метод сжатия : С потерями
Размер потока : 17,4 Мбайт (4%)
Выравнивание : Соединение по промежуткам
Продолжительность промежутка : 36 мс. (0,90 видеокадр)
Время предзагрузки промежутка : 432 ms
Библиотека кодирования : LAME3.98r
Настройки программы : -m j -V 4 -q 2 -lowpass 15.1 --abr 96
Язык : Russian

Общее
Полное имя : G:\Будильник.1977-1989.XviD.SATRip.avi\Budilnik 21_XviD.avi
Формат : AVI
Формат/Информация : Audio Video Interleave
Размер файла : 399 Мбайт
Продолжительность : 29 м.
Общий поток : 1889 Кбит/сек
Программа кодирования : VirtualDubMod 1.5.4.1 (build 2178/release)
Библиотека кодирования : VirtualDubMod build 2178/release

Видео
Идентификатор : 0
Формат : MPEG-4 Visual
Параметр BVOP формата : Нет
Параметр QPel формата : Нет
Параметр GMC формата : Без точки перехода
Параметр матрицы формата : Default (H.263)
Идентификатор кодека : DX50
Идентификатор кодека/Подсказка : DivX 5
Продолжительность : 29 м.
Битрейт : 1797 Кбит/сек
Ширина : 720 пикс.
Высота : 544 пикс.
Соотношение сторон : 4:3
Частота кадров : 25,000 кадр/сек
Цветовое пространство : YUV
Подвыборка цветности : 4:2:0
Битовая глубина : 8 бит
Тип развёртки : Прогрессивная
Метод сжатия : С потерями
Бит/(Пиксели*Кадры) : 0.183
Размер потока : 380 Мбайт (95%)
Библиотека кодирования : DivX 5.2.1 (DrDivX 106) (UTC 2004-09-08)

Аудио
Идентификатор : 1
Формат : MPEG Audio
Версия формата : Version 1
Профиль формата : Layer 3
Режим : Joint stereo
Расширение режима : MS Stereo
Идентификатор кодека : 55
Идентификатор кодека/Подсказка : MP3
Продолжительность : 29 м.
Вид битрейта : Переменный
Битрейт : 81,6 Кбит/сек
Номинальный битрейт : 96,0 Кбит/сек
Канал(ы) : 2 канала(ов)
Частота : 32,0 КГц
Метод сжатия : С потерями
Размер потока : 17,2 Мбайт (4%)
Выравнивание : Соединение по промежуткам
Продолжительность промежутка : 36 мс. (0,90 видеокадр)
Время предзагрузки промежутка : 455 ms
Библиотека кодирования : LAME3.98r
Настройки программы : -m j -V 4 -q 2 -lowpass 15.1 --abr 96
Язык : Russian

Общее
Полное имя : G:\Будильник.1977-1989.XviD.SATRip.avi\Budilnik 22_XviD.avi
Формат : AVI
Формат/Информация : Audio Video Interleave
Размер файла : 582 Мбайт
Продолжительность : 30 м.
Общий поток : 2708 Кбит/сек
Программа кодирования : Lavf50.5.0

Видео
Идентификатор : 0
Формат : MPEG-4 Visual
Профиль формата : Simple@L1
Параметр BVOP формата : Нет
Параметр QPel формата : Нет
Параметр GMC формата : Без точки перехода
Параметр матрицы формата : Default (H.263)
Идентификатор кодека : DIVX
Идентификатор кодека/Информация : Project Mayo
Идентификатор кодека/Подсказка : DivX 4
Продолжительность : 30 м.
Битрейт : 2632 Кбит/сек
Ширина : 720 пикс.
Высота : 576 пикс.
Соотношение сторон : 5:4
Частота кадров : 25,000 кадр/сек
Стандарт вещания : PAL
Цветовое пространство : YUV
Подвыборка цветности : 4:2:0
Битовая глубина : 8 бит
Тип развёртки : Прогрессивная
Метод сжатия : С потерями
Бит/(Пиксели*Кадры) : 0.254
Размер потока : 565 Мбайт (97%)
Библиотека кодирования : Lavc51.14.0

Аудио
Идентификатор : 1
Формат : MPEG Audio
Версия формата : Version 1
Профиль формата : Layer 2
Идентификатор кодека : 50
Продолжительность : 30 м.
Вид битрейта : Постоянный
Битрейт : 64,0 Кбит/сек
Канал(ы) : 1 канал
Частота : 44,1 КГц
Метод сжатия : С потерями
Размер потока : 13,7 Мбайт (2%)
Выравнивание : Соединение по промежуткам
Продолжительность промежутка : 26 мс. (0,65 видеокадр)
Время предзагрузки промежутка : 26 ms

Общее
Полное имя : G:\Будильник.1977-1989.XviD.SATRip.avi\Budilnik 23_XviD.avi
Формат : AVI
Формат/Информация : Audio Video Interleave
Размер файла : 399 Мбайт
Продолжительность : 29 м.
Общий поток : 1876 Кбит/сек
Программа кодирования : VirtualDubMod 1.5.4.1 (build 2178/release)
Библиотека кодирования : VirtualDubMod build 2178/release

Видео
Идентификатор : 0
Формат : MPEG-4 Visual
Параметр BVOP формата : Нет
Параметр QPel формата : Нет
Параметр GMC формата : Без точки перехода
Параметр матрицы формата : Default (H.263)
Идентификатор кодека : DX50
Идентификатор кодека/Подсказка : DivX 5
Продолжительность : 29 м.
Битрейт : 1783 Кбит/сек
Ширина : 720 пикс.
Высота : 544 пикс.
Соотношение сторон : 4:3
Частота кадров : 25,000 кадр/сек
Цветовое пространство : YUV
Подвыборка цветности : 4:2:0
Битовая глубина : 8 бит
Тип развёртки : Прогрессивная
Метод сжатия : С потерями
Бит/(Пиксели*Кадры) : 0.182
Размер потока : 380 Мбайт (95%)
Библиотека кодирования : DivX 5.2.1 (DrDivX 106) (UTC 2004-09-08)

Аудио
Идентификатор : 1
Формат : MPEG Audio
Версия формата : Version 1
Профиль формата : Layer 3
Режим : Joint stereo
Расширение режима : MS Stereo
Идентификатор кодека : 55
Идентификатор кодека/Подсказка : MP3
Продолжительность : 29 м.
Вид битрейта : Переменный
Битрейт : 82,9 Кбит/сек
Номинальный битрейт : 96,0 Кбит/сек
Канал(ы) : 2 канала(ов)
Частота : 32,0 КГц
Метод сжатия : С потерями
Размер потока : 17,6 Мбайт (4%)
Выравнивание : Соединение по промежуткам
Продолжительность промежутка : 36 мс. (0,90 видеокадр)
Время предзагрузки промежутка : 455 ms
Библиотека кодирования : LAME3.98r
Настройки программы : -m j -V 4 -q 2 -lowpass 15.1 --abr 96
Язык : Russian

Общее
Полное имя : G:\Будильник.1977-1989.XviD.SATRip.avi\Budilnik 24_XviD.avi
Формат : AVI
Формат/Информация : Audio Video Interleave
Размер файла : 399 Мбайт
Продолжительность : 30 м.
Общий поток : 1815 Кбит/сек
Программа кодирования : VirtualDubMod 1.5.4.1 (build 2178/release)
Библиотека кодирования : VirtualDubMod build 2178/release

Видео
Идентификатор : 0
Формат : MPEG-4 Visual
Параметр BVOP формата : Нет
Параметр QPel формата : Нет
Параметр GMC формата : Без точки перехода
Параметр матрицы формата : Default (H.263)
Идентификатор кодека : DX50
Идентификатор кодека/Подсказка : DivX 5
Продолжительность : 30 м.
Битрейт : 1721 Кбит/сек
Ширина : 720 пикс.
Высота : 544 пикс.
Соотношение сторон : 4:3
Частота кадров : 25,000 кадр/сек
Цветовое пространство : YUV
Подвыборка цветности : 4:2:0
Битовая глубина : 8 бит
Тип развёртки : Прогрессивная
Метод сжатия : С потерями
Бит/(Пиксели*Кадры) : 0.176
Размер потока : 379 Мбайт (95%)
Библиотека кодирования : DivX 5.2.1 (DrDivX 106) (UTC 2004-09-08)

Аудио
Идентификатор : 1
Формат : MPEG Audio
Версия формата : Version 1
Профиль формата : Layer 3
Режим : Joint stereo
Расширение режима : MS Stereo
Идентификатор кодека : 55
Идентификатор кодека/Подсказка : MP3
Продолжительность : 30 м.
Вид битрейта : Переменный
Битрейт : 83,6 Кбит/сек
Номинальный битрейт : 96,0 Кбит/сек
Канал(ы) : 2 канала(ов)
Частота : 32,0 КГц
Метод сжатия : С потерями
Размер потока : 18,4 Мбайт (5%)
Выравнивание : Соединение по промежуткам
Продолжительность промежутка : 36 мс. (0,90 видеокадр)
Время предзагрузки промежутка : 488 ms
Библиотека кодирования : LAME3.98r
Настройки программы : -m j -V 4 -q 2 -lowpass 15.1 --abr 96
Язык : Russian

Общее
Полное имя : G:\Будильник.1977-1989.XviD.SATRip.avi\Budilnik 25_XviD.avi
Формат : AVI
Формат/Информация : Audio Video Interleave
Размер файла : 399 Мбайт
Продолжительность : 29 м.
Общий поток : 1863 Кбит/сек
Программа кодирования : VirtualDubMod 1.5.4.1 (build 2178/release)
Библиотека кодирования : VirtualDubMod build 2178/release

Видео
Идентификатор : 0
Формат : MPEG-4 Visual
Параметр BVOP формата : Нет
Параметр QPel формата : Нет
Параметр GMC формата : Без точки перехода
Параметр матрицы формата : Default (H.263)
Идентификатор кодека : DX50
Идентификатор кодека/Подсказка : DivX 5
Продолжительность : 29 м.
Битрейт : 1768 Кбит/сек
Ширина : 720 пикс.
Высота : 544 пикс.
Соотношение сторон : 4:3
Частота кадров : 25,000 кадр/сек
Цветовое пространство : YUV
Подвыборка цветности : 4:2:0
Битовая глубина : 8 бит
Тип развёртки : Прогрессивная
Метод сжатия : С потерями
Бит/(Пиксели*Кадры) : 0.181
Размер потока : 379 Мбайт (95%)
Библиотека кодирования : DivX 5.2.1 (DrDivX 106) (UTC 2004-09-08)

Аудио
Идентификатор : 1
Формат : MPEG Audio
Версия формата : Version 1
Профиль формата : Layer 3
Режим : Joint stereo
Расширение режима : MS Stereo
Идентификатор кодека : 55
Идентификатор кодека/Подсказка : MP3
Продолжительность : 29 м.
Вид битрейта : Переменный
Битрейт : 84,0 Кбит/сек
Номинальный битрейт : 96,0 Кбит/сек
Канал(ы) : 2 канала(ов)
Частота : 32,0 КГц
Метод сжатия : С потерями
Размер потока : 18,0 Мбайт (5%)
Выравнивание : Соединение по промежуткам
Продолжительность промежутка : 36 мс. (0,90 видеокадр)
Время предзагрузки промежутка : 504 ms
Библиотека кодирования : LAME3.98r
Настройки программы : -m j -V 4 -q 2 -lowpass 15.1 --abr 96
Язык : Russian

Общее
Полное имя : G:\Будильник.1977-1989.XviD.SATRip.avi\Budilnik 26_XviD.avi
Формат : AVI
Формат/Информация : Audio Video Interleave
Размер файла : 399 Мбайт
Продолжительность : 29 м.
Общий поток : 1890 Кбит/сек
Программа кодирования : VirtualDubMod 1.5.4.1 (build 2178/release)
Библиотека кодирования : VirtualDubMod build 2178/release

Видео
Идентификатор : 0
Формат : MPEG-4 Visual
Параметр BVOP формата : Нет
Параметр QPel формата : Нет
Параметр GMC формата : Без точки перехода
Параметр матрицы формата : Default (H.263)
Идентификатор кодека : DX50
Идентификатор кодека/Подсказка : DivX 5
Продолжительность : 29 м.
Битрейт : 1797 Кбит/сек
Ширина : 720 пикс.
Высота : 544 пикс.
Соотношение сторон : 4:3
Частота кадров : 25,000 кадр/сек
Цветовое пространство : YUV
Подвыборка цветности : 4:2:0
Битовая глубина : 8 бит
Тип развёртки : Прогрессивная
Метод сжатия : С потерями
Бит/(Пиксели*Кадры) : 0.184
Размер потока : 380 Мбайт (95%)
Библиотека кодирования : DivX 5.2.1 (DrDivX 106) (UTC 2004-09-08)

Аудио
Идентификатор : 1
Формат : MPEG Audio
Версия формата : Version 1
Профиль формата : Layer 3
Режим : Joint stereo
Расширение режима : MS Stereo
Идентификатор кодека : 55
Идентификатор кодека/Подсказка : MP3
Продолжительность : 29 м.
Вид битрейта : Переменный
Битрейт : 82,9 Кбит/сек
Номинальный битрейт : 96,0 Кбит/сек
Канал(ы) : 2 канала(ов)
Частота : 32,0 КГц
Метод сжатия : С потерями
Размер потока : 17,5 Мбайт (4%)
Выравнивание : Соединение по промежуткам
Продолжительность промежутка : 36 мс. (0,90 видеокадр)
Время предзагрузки промежутка : 389 ms
Библиотека кодирования : LAME3.98r
Настройки программы : -m j -V 4 -q 2 -lowpass 15.1 --abr 96
Язык : Russian

Общее
Полное имя : G:\Будильник.1977-1989.XviD.SATRip.avi\Budilnik 2_DivX.avi
Формат : AVI
Формат/Информация : Audio Video Interleave
Размер файла : 400 Мбайт
Продолжительность : 30 м.
Общий поток : 1834 Кбит/сек
Программа кодирования : VirtualDubMod 1.5.4.1 (build 2178/release)
Библиотека кодирования : VirtualDubMod build 2178/release

Видео
Идентификатор : 0
Формат : MPEG-4 Visual
Параметр BVOP формата : 1
Параметр QPel формата : Нет
Параметр GMC формата : Без точки перехода
Параметр матрицы формата : Default (H.263)
Режим смешивания : Сжатый битовый поток
Идентификатор кодека : DX50
Идентификатор кодека/Подсказка : DivX 5
Продолжительность : 30 м.
Битрейт : 1699 Кбит/сек
Ширина : 480 пикс.
Высота : 368 пикс.
Соотношение сторон : 4:3
Частота кадров : 25,000 кадр/сек
Цветовое пространство : YUV
Подвыборка цветности : 4:2:0
Битовая глубина : 8 бит
Тип развёртки : Прогрессивная
Метод сжатия : С потерями
Бит/(Пиксели*Кадры) : 0.385
Размер потока : 371 Мбайт (93%)
Библиотека кодирования : DivX 6.8.3-6.8.4 (UTC 2008-06-07)

Аудио
Идентификатор : 1
Формат : AC-3
Формат/Информация : Audio Coding 3
Расширение режима : CM (complete main)
Идентификатор кодека : 2000
Продолжительность : 30 м.
Вид битрейта : Постоянный
Битрейт : 128 Кбит/сек
Канал(ы) : 2 канала(ов)
Расположение каналов : Front: L R
Частота : 48,0 КГц
Битовая глубина : 16 бит
Метод сжатия : С потерями
Размер потока : 27,9 Мбайт (7%)
Выравнивание : Разделение по промежуткам
Продолжительность промежутка : 96 мс. (2,40 видеокадров)
Время предзагрузки промежутка : 96 ms

Общее
Полное имя : G:\Будильник.1977-1989.XviD.SATRip.avi\Budilnik 3_DivX.avi
Формат : AVI
Формат/Информация : Audio Video Interleave
Размер файла : 400 Мбайт
Продолжительность : 29 м.
Общий поток : 1928 Кбит/сек
Программа кодирования : VirtualDubMod 1.5.4.1 (build 2178/release)
Библиотека кодирования : VirtualDubMod build 2178/release

Видео
Идентификатор : 0
Формат : MPEG-4 Visual
Параметр BVOP формата : 1
Параметр QPel формата : Нет
Параметр GMC формата : Без точки перехода
Параметр матрицы формата : Default (H.263)
Режим смешивания : Сжатый битовый поток
Идентификатор кодека : DX50
Идентификатор кодека/Подсказка : DivX 5
Продолжительность : 29 м.
Битрейт : 1793 Кбит/сек
Ширина : 496 пикс.
Высота : 368 пикс.
Соотношение сторон : 4:3
Частота кадров : 25,000 кадр/сек
Цветовое пространство : YUV
Подвыборка цветности : 4:2:0
Битовая глубина : 8 бит
Тип развёртки : Прогрессивная
Метод сжатия : С потерями
Бит/(Пиксели*Кадры) : 0.393
Размер потока : 372 Мбайт (93%)
Библиотека кодирования : DivX 6.8.3-6.8.4 (UTC 2008-06-07)

Аудио
Идентификатор : 1
Формат : AC-3
Формат/Информация : Audio Coding 3
Расширение режима : CM (complete main)
Идентификатор кодека : 2000
Продолжительность : 29 м.
Вид битрейта : Постоянный
Битрейт : 128 Кбит/сек
Канал(ы) : 2 канала(ов)
Расположение каналов : Front: L R
Частота : 48,0 КГц
Битовая глубина : 16 бит
Метод сжатия : С потерями
Размер потока : 26,6 Мбайт (7%)
Выравнивание : Разделение по промежуткам
Продолжительность промежутка : 96 мс. (2,40 видеокадров)
Время предзагрузки промежутка : 96 ms

Общее
Полное имя : G:\Будильник.1977-1989.XviD.SATRip.avi\Budilnik 4_DivX.avi
Формат : AVI
Формат/Информация : Audio Video Interleave
Размер файла : 400 Мбайт
Продолжительность : 29 м.
Общий поток : 1907 Кбит/сек
Программа кодирования : VirtualDubMod 1.5.4.1 (build 2178/release)
Библиотека кодирования : VirtualDubMod build 2178/release

Видео
Идентификатор : 0
Формат : MPEG-4 Visual
Параметр BVOP формата : 1
Параметр QPel формата : Нет
Параметр GMC формата : Без точки перехода
Параметр матрицы формата : Default (H.263)
Режим смешивания : Сжатый битовый поток
Идентификатор кодека : DX50
Идентификатор кодека/Подсказка : DivX 5
Продолжительность : 29 м.
Битрейт : 1772 Кбит/сек
Ширина : 640 пикс.
Высота : 480 пикс.
Соотношение сторон : 4:3
Частота кадров : 25,000 кадр/сек
Цветовое пространство : YUV
Подвыборка цветности : 4:2:0
Битовая глубина : 8 бит
Тип развёртки : Прогрессивная
Метод сжатия : С потерями
Бит/(Пиксели*Кадры) : 0.231
Размер потока : 372 Мбайт (93%)
Библиотека кодирования : DivX 6.8.3-6.8.4 (UTC 2008-06-07)

Аудио
Идентификатор : 1
Формат : AC-3
Формат/Информация : Audio Coding 3
Расширение режима : CM (complete main)
Идентификатор кодека : 2000
Продолжительность : 29 м.
Вид битрейта : Постоянный
Битрейт : 128 Кбит/сек
Канал(ы) : 2 канала(ов)
Расположение каналов : Front: L R
Частота : 48,0 КГц
Битовая глубина : 16 бит
Метод сжатия : С потерями
Размер потока : 26,9 Мбайт (7%)
Выравнивание : Разделение по промежуткам
Продолжительность промежутка : 96 мс. (2,40 видеокадров)
Время предзагрузки промежутка : 96 ms

Общее
Полное имя : G:\Будильник.1977-1989.XviD.SATRip.avi\Budilnik 5_DivX.avi
Формат : AVI
Формат/Информация : Audio Video Interleave
Размер файла : 400 Мбайт
Продолжительность : 29 м.
Общий поток : 1878 Кбит/сек
Программа кодирования : VirtualDubMod 1.5.4.1 (build 2178/release)
Библиотека кодирования : VirtualDubMod build 2178/release

Видео
Идентификатор : 0
Формат : MPEG-4 Visual
Параметр BVOP формата : 1
Параметр QPel формата : Нет
Параметр GMC формата : Без точки перехода
Параметр матрицы формата : Default (H.263)
Режим смешивания : Сжатый битовый поток
Идентификатор кодека : DX50
Идентификатор кодека/Подсказка : DivX 5
Продолжительность : 29 м.
Битрейт : 1746 Кбит/сек
Ширина : 720 пикс.
Высота : 544 пикс.
Соотношение сторон : 4:3
Частота кадров : 25,000 кадр/сек
Цветовое пространство : YUV
Подвыборка цветности : 4:2:0
Битовая глубина : 8 бит
Тип развёртки : Прогрессивная
Метод сжатия : С потерями
Бит/(Пиксели*Кадры) : 0.178
Размер потока : 372 Мбайт (93%)
Библиотека кодирования : DivX 6.8.3-6.8.4 (UTC 2008-06-07)

Аудио
Идентификатор : 1
Формат : MPEG Audio
Версия формата : Version 1
Профиль формата : Layer 3
Режим : Joint stereo
Идентификатор кодека : 55
Идентификатор кодека/Подсказка : MP3
Продолжительность : 29 м.
Вид битрейта : Переменный
Битрейт : 119 Кбит/сек
Номинальный битрейт : 128 Кбит/сек
Канал(ы) : 2 канала(ов)
Частота : 48,0 КГц
Метод сжатия : С потерями
Размер потока : 25,3 Мбайт (6%)
Выравнивание : Соединение по промежуткам
Продолжительность промежутка : 24 мс. (0,60 видеокадр)
Время предзагрузки промежутка : 514 ms
Библиотека кодирования : LAME3.97
Настройки программы : -m j -V 4 -q 2 -lowpass 17 --abr 128

Общее
Полное имя : G:\Будильник.1977-1989.XviD.SATRip.avi\Budilnik 6_XviD.avi
Формат : AVI
Формат/Информация : Audio Video Interleave
Размер файла : 299 Мбайт
Продолжительность : 27 м.
Общий поток : 1519 Кбит/сек

Видео
Идентификатор : 0
Формат : MPEG-4 Visual
Параметр BVOP формата : 1
Параметр QPel формата : Нет
Параметр GMC формата : Без точки перехода
Параметр матрицы формата : Default (H.263)
Режим смешивания : Сжатый битовый поток
Идентификатор кодека : DX50
Идентификатор кодека/Подсказка : DivX 5
Продолжительность : 27 м.
Битрейт : 1378 Кбит/сек
Ширина : 672 пикс.
Высота : 504 пикс.
Соотношение сторон : 4:3
Частота кадров : 25,000 кадр/сек
Цветовое пространство : YUV
Подвыборка цветности : 4:2:0
Битовая глубина : 8 бит
Тип развёртки : Прогрессивная
Метод сжатия : С потерями
Бит/(Пиксели*Кадры) : 0.163
Размер потока : 271 Мбайт (91%)
Библиотека кодирования : DivX 6.7.0 (UTC 2007-09-20)

Аудио
Идентификатор : 1
Формат : MPEG Audio
Версия формата : Version 1
Профиль формата : Layer 3
Режим : Joint stereo
Расширение режима : MS Stereo
Идентификатор кодека : 55
Идентификатор кодека/Подсказка : MP3
Продолжительность : 27 м.
Вид битрейта : Постоянный
Битрейт : 128 Кбит/сек
Канал(ы) : 2 канала(ов)
Частота : 48,0 КГц
Метод сжатия : С потерями
Задержка видео : 8 мс.
Размер потока : 25,2 Мбайт (8%)
Выравнивание : Разделение по промежуткам
Продолжительность промежутка : 40 мс. (1,00 видеокадр)
Время предзагрузки промежутка : 20 ms

Общее
Полное имя : G:\Будильник.1977-1989.XviD.SATRip.avi\Budilnik 7_XviD.avi
Формат : AVI
Формат/Информация : Audio Video Interleave
Размер файла : 399 Мбайт
Продолжительность : 27 м.
Общий поток : 2037 Кбит/сек
Программа кодирования : VirtualDubMod 1.5.4.1 (build 2178/release)
Библиотека кодирования : VirtualDubMod build 2178/release

Видео
Идентификатор : 0
Формат : MPEG-4 Visual
Параметр BVOP формата : Нет
Параметр QPel формата : Нет
Параметр GMC формата : Без точки перехода
Параметр матрицы формата : Default (H.263)
Идентификатор кодека : DX50
Идентификатор кодека/Подсказка : DivX 5
Продолжительность : 27 м.
Битрейт : 1947 Кбит/сек
Ширина : 720 пикс.
Высота : 544 пикс.
Соотношение сторон : 4:3
Частота кадров : 25,000 кадр/сек
Цветовое пространство : YUV
Подвыборка цветности : 4:2:0
Битовая глубина : 8 бит
Тип развёртки : Прогрессивная
Метод сжатия : С потерями
Бит/(Пиксели*Кадры) : 0.199
Размер потока : 382 Мбайт (96%)
Библиотека кодирования : DivX 5.2.1 (DrDivX 106) (UTC 2004-09-08)

Аудио
Идентификатор : 1
Формат : MPEG Audio
Версия формата : Version 1
Профиль формата : Layer 3
Режим : Joint stereo
Расширение режима : MS Stereo
Идентификатор кодека : 55
Идентификатор кодека/Подсказка : MP3
Продолжительность : 27 м.
Вид битрейта : Переменный
Битрейт : 80,0 Кбит/сек
Номинальный битрейт : 96,0 Кбит/сек
Канал(ы) : 2 канала(ов)
Частота : 32,0 КГц
Метод сжатия : С потерями
Размер потока : 15,7 Мбайт (4%)
Выравнивание : Соединение по промежуткам
Продолжительность промежутка : 36 мс. (0,90 видеокадр)
Время предзагрузки промежутка : 522 ms
Библиотека кодирования : LAME3.98r
Настройки программы : -m j -V 4 -q 2 -lowpass 15.1 --abr 96
Язык : Russian

Общее
Полное имя : G:\Будильник.1977-1989.XviD.SATRip.avi\Budilnik 8_XviD.avi
Формат : AVI
Формат/Информация : Audio Video Interleave
Размер файла : 399 Мбайт
Продолжительность : 29 м.
Общий поток : 1872 Кбит/сек
Программа кодирования : VirtualDubMod 1.5.4.1 (build 2178/release)
Библиотека кодирования : VirtualDubMod build 2178/release

Видео
Идентификатор : 0
Формат : MPEG-4 Visual
Параметр BVOP формата : Нет
Параметр QPel формата : Нет
Параметр GMC формата : Без точки перехода
Параметр матрицы формата : Default (H.263)
Идентификатор кодека : DX50
Идентификатор кодека/Подсказка : DivX 5
Продолжительность : 29 м.
Битрейт : 1779 Кбит/сек
Ширина : 720 пикс.
Высота : 544 пикс.
Соотношение сторон : 4:3
Частота кадров : 25,000 кадр/сек
Цветовое пространство : YUV
Подвыборка цветности : 4:2:0
Битовая глубина : 8 бит
Тип развёртки : Прогрессивная
Метод сжатия : С потерями
Бит/(Пиксели*Кадры) : 0.182
Размер потока : 380 Мбайт (95%)
Библиотека кодирования : DivX 5.2.1 (DrDivX 106) (UTC 2004-09-08)

Аудио
Идентификатор : 1
Формат : MPEG Audio
Версия формата : Version 1
Профиль формата : Layer 3
Режим : Joint stereo
Расширение режима : MS Stereo
Идентификатор кодека : 55
Идентификатор кодека/Подсказка : MP3
Продолжительность : 29 м.
Вид битрейта : Переменный
Битрейт : 82,2 Кбит/сек
Номинальный битрейт : 96,0 Кбит/сек
Канал(ы) : 2 канала(ов)
Частота : 32,0 КГц
Метод сжатия : С потерями
Размер потока : 17,5 Мбайт (4%)
Выравнивание : Соединение по промежуткам
Продолжительность промежутка : 36 мс. (0,90 видеокадр)
Время предзагрузки промежутка : 515 ms
Библиотека кодирования : LAME3.98r
Настройки программы : -m j -V 4 -q 2 -lowpass 15.1 --abr 96
Язык : Russian

Общее
Полное имя : G:\Будильник.1977-1989.XviD.SATRip.avi\Budilnik 9_XviD.avi
Формат : AVI
Формат/Информация : Audio Video Interleave
Размер файла : 294 Мбайт
Продолжительность : 29 м.
Общий поток : 1384 Кбит/сек
Библиотека кодирования : VirtualDub-MPEG2 build 24586/release

Видео
Идентификатор : 0
Формат : MPEG-4 Visual
Параметр BVOP формата : 1
Параметр QPel формата : Нет
Параметр GMC формата : Без точки перехода
Параметр матрицы формата : Default (H.263)
Режим смешивания : Сжатый битовый поток
Идентификатор кодека : DX50
Идентификатор кодека/Подсказка : DivX 5
Продолжительность : 29 м.
Битрейт : 1182 Кбит/сек
Ширина : 672 пикс.
Высота : 504 пикс.
Соотношение сторон : 4:3
Частота кадров : 25,000 кадр/сек
Цветовое пространство : YUV
Подвыборка цветности : 4:2:0
Битовая глубина : 8 бит
Тип развёртки : Прогрессивная
Метод сжатия : С потерями
Бит/(Пиксели*Кадры) : 0.140
Размер потока : 251 Мбайт (85%)
Библиотека кодирования : DivX 6.7.0 (UTC 2007-09-20)

Аудио
Идентификатор : 1
Формат : MPEG Audio
Версия формата : Version 1
Профиль формата : Layer 3
Режим : Joint stereo
Идентификатор кодека : 55
Идентификатор кодека/Подсказка : MP3
Продолжительность : 29 м.
Вид битрейта : Постоянный
Битрейт : 192 Кбит/сек
Канал(ы) : 2 канала(ов)
Частота : 48,0 КГц
Метод сжатия : С потерями
Размер потока : 40,7 Мбайт (14%)
Выравнивание : Разделение по промежуткам
Продолжительность промежутка : 40 мс. (1,00 видеокадр)
Время предзагрузки промежутка : 500 ms
Скриншоты:


[NNM-Club.ru]_Budil'nik.1977-1989.XviD.SATRip.avi.torrent
 Торрент: Платиновая раздача  Зарегистрирован
 
Скачать


Примагнититься
 Зарегистрирован:   06 Июн 2012 15:29:01
 Размер:   9,9 GB  (
 Рейтинг:   4,9 (Голосов: 55)
 Поблагодарили:   204
 Проверка:   Оформление проверено модератором 06 Июн 2012 21:34:17
Как cкачать  ·  Как раздать  ·  Правильно оформить  ·  Поднять ратио!  
kaliostro100
Стаж: 9 лет 10 мес.
Сообщений: 159
Ratio: 1,756
Поблагодарили: 4275
100%
ukraine.gif
А после "Будильника" выходила "утр. почта."
verrvollf
Стаж: 10 лет
Сообщений: 424
Ratio: 1,301
21.05%
russia.gif
блин, детство вспомнил! ностальгия!
Katran9
Стаж: 8 лет 10 мес.
Сообщений: 193
Ratio: 3,998
100%
russia.gif
..а после Утренней почты Служу Советскому народу

Добавлено спустя 1 минуту 49 секунд:

*Союзу)))) Сори старый совсем
Стиль
Стаж: 11 лет 1 мес.
Сообщений: 201
Ratio: 11,994
100%
Спасибо!
Надеюсь детям понравится!
VakulaP
Стаж: 6 лет 2 мес.
Сообщений: 2
57.14%
Скачиваю , и незнаю , дочке или себе... Я счастлива
denver7979
Зам. Куратора Детского.
Модератор Видео.
RG Всё лучшее - детям!
 
Стаж: 8 лет 11 мес.
Сообщений: 7684
Ratio: 504,665
Раздал: 34,76 TB
Поблагодарили: 312720
100%
Откуда: Земля
ussr.gif
VakulaP писал(а): Перейти к сообщению
дочке или себе...

Вместе! Всей семьей! =)

_________________
§ Основной FAQ & Все ПравилаНабор в RG NNM-Club Всё для детей, пап и мам
* Все вопросы в ☛ ЛС по вашим релизам ☣
обязательно со ссылками на темы, о которых идёт речь ☺
ignatievva
Стаж: 10 лет 5 мес.
Сообщений: 664
Ratio: 6,265
Раздал: 5,051 TB
0.6%
russia.gif
Я думал что забыл уже, а сейчас послушал песню и вспомнил 70 е и 80е года, Будильник, АБВГДейку, Служу Советскому Союзу, и прочее и прочее...Да , Сельский час забыл вспомнить...)))
cacaca
Стаж: 12 лет 3 мес.
Сообщений: 37
Ratio: 2,447
0.81%
ignatievva писал(а): Перейти к сообщению
Я думал что забыл уже, а сейчас послушал песню и вспомнил 70 е и 80е года, Будильник, АБВГДейку, Служу Советскому Союзу, и прочее и прочее...Да , Сельский час забыл вспомнить...)))


Больше хороших товаров - забыли =)
Показать сообщения:   
Начать новую тему   Ответить на тему    Торрент-трекер NNM-Club -> Видео -> Развивающее Видео для детей Часовой пояс: GMT + 3
Страница 1 из 1