Классический форум-трекер
canvas not supported
Нас вместе: 4 079 159

Кикбоксер / Kickboxer (1989) HDRip


 
 
RSS
Начать новую тему   Ответить на тему    Торрент-трекер NNM-Club -> Классика кино и Старые фильмы до 90-х -> Старые Зарубежные Фильмы (HD*Rip/LQ, DVDRip, SATRip, VHSRip)
Автор Сообщение
ra3wa ®
Модератор Видео
RG Releasers
Uploader 100+
 
Стаж: 9 лет 3 мес.
Сообщений: 11985
Ratio: 7786,736
Раздал: 363,6 TB
Поблагодарили: 2289280
100%
Откуда: Воронеж
russia.gif
Кикбоксер / Kickboxer (1989) HDRip
Русское название: Кикбоксер
Оригинальное название: Kickboxer
Производство: США, Kings Road Entertainment
Год выпуска: 1989
Жанр: Боевик, триллер, спорт

Описание фильма:
Братья Курт и Эрик Слоан отправляются в Таиланд, на родину кикбоксинга, чтобы доказать местным бойцам превосходство американской школы над тайской. Эрик, чемпион Америки по кикбоксингу, встречается в бою с Тонг По, чемпионом Таиланда.
Тонг По оказывается сущим зверем. Он намеренно калечит уже обессилевшего Эрика Слоана, обрекая его на инвалидность. Курт поступает в обучение к мастеру тайской борьбы Зену, чтобы победить Тонг По и отомстить за парализованного брата.

Режиссер: Марк ДиСалле, Дэвид Ворф
Актеры: Жан-Клод Ван Дамм, Деннис Алексио, Дэннис Чан, Мишель Кисси, Хэскелл В. Андерсон III, Стив Ли, Ричард Фу, Рики Лью, Син Хо Йенг

Продолжительность: 01:37:30
Перевод: Профессиональный двуголосый


Релиз от

Видеокодек: Xvid
Битрейт видео: ~1747 Кбит/с
Размер кадра: 720x400
Качество видео: HDRip
Аудиокодек: AC3 5.1
Битрейт аудио: 384 Кбит/с
Общее
Полное имя : C:\Justlan\Кикбоксер\Kikbokser.avi
Формат : AVI
Формат/Информация : Audio Video Interleave
Размер файла : 1,46 Гбайт
Продолжительность : 1 ч. 37 м.
Общий поток : 2140 Кбит/сек
Программа кодирования : VirtualDubMod 1.5.10.2 (build 2540/release)

Видео
Идентификатор : 0
Формат : MPEG-4 Visual
Профиль формата : Advanced Simple@L5
Параметр BVOP формата : 1
Параметр QPel формата : Нет
Параметр GMC формата : Без точки перехода
Параметр матрицы формата : Default (MPEG)
Идентификатор кодека : XVID
Идентификатор кодека/Подсказка : XviD
Продолжительность : 1 ч. 37 м.
Битрейт : 1747 Кбит/сек
Ширина : 720 пикселей
Высота : 400 пикселей
Соотношение сторон : 16:9
Частота кадров : 23,976 кадра/сек
Цветовое пространство : YUV
Субдискретизация насыщенности : 4:2:0
Битовая глубина : 8 бит
Тип развёртки : Прогрессивная
Метод сжатия : С потерями
Бит/(Пиксели*Кадры) : 0.253
Размер потока : 1,19 Гбайт (82%)
Библиотека кодирования : XviD 1.2.0.dev47 (UTC 2006-11-01)

Аудио
Идентификатор : 1
Формат : AC-3
Формат/Информация : Audio Coding 3
Расширение режима : CM (complete main)
Идентификатор кодека : 2000
Продолжительность : 1 ч. 37 м.
Вид битрейта : Постоянный
Битрейт : 384 Кбит/сек
Каналы : 6 каналов
Расположение каналов : Front: L C R, Side: L R, LFE
Частота : 48,0 КГц
Битовая глубина : 16 бит
Метод сжатия : С потерями
Размер потока : 268 Мбайт (18%)
Выравнивание : Разделение по промежуткам
Продолжительность промежутка : 42 мс. (1,00 видеокадр)
Время предзагрузки промежутка : 500 мс.
Скриншоты:


Время раздачи: Круглосуточно до 10 скачавших
[NNM-Club.ru]_Kikbokser.avi.torrent
 Торрент: Платиновая раздача  Зарегистрирован
 
Скачать


Примагнититься
 Зарегистрирован:   07 Июн 2012 09:45:30
 Размер:   1,46 GB  (
 Рейтинг:   4,8 (Голосов: 69)
 Поблагодарили:   164
 Проверка:   Оформление проверено модератором 07 Июн 2012 09:48:19
Как cкачать  ·  Как раздать  ·  Правильно оформить  ·  Поднять ратио!  
Загрузка...
laoshe2
Uploader 100+
Стаж: 8 лет 1 мес.
Сообщений: 627
Ratio: 340,082
100%
russia.gif
Это наверное наиболее удачный фильм Ван Дамма :бокс: :клево: :цветок:
UZEF666
 
Стаж: 8 лет 3 мес.
Сообщений: 279
Ratio: 14,715
Поблагодарили: 2920
100%
Откуда: Евпатория
nnm-club.gif
Перевод, как в пустой комнате, сплошное эхо. Может кто-то решил сделать эффект трехмерного звука, но у него явно это не получилось. А сам фильм очень хорош да и рип неплох, качество явно намного лучше, чем на видеокассете)))

_________________
Если эта надпись уменьшается - ваш монитор уносят!
Алексей Борисович Струков
Стаж: 8 лет 1 мес.
Сообщений: 485
Ratio: 1,729
Поблагодарили: 1
24.29%
Откуда: Челябинск РСФСР,СССР,РФ
russia.gif
Скачаем и пасмотрим!!!!!
Igruk007
Стаж: 4 года 10 мес.
Сообщений: 102
Ratio: 4,839
100%
Откуда: Dnepropetrovsk
ukraine.gif
Классный фильм! Спасибо за раздачу)
Топик был перенесен из форума Зарубежные Фильмы (HD*Rip/LQ, DVDRip, SATRip, VHSRip) в форум Старые Зарубежные Фильмы (HD*Rip/LQ, DVDRip, SATRip, VHSRip)



Исправил релиз - напиши ЛС MAG3131, дав ссылку на релиз.
Если нет ответа 24 часа - нажми на кнопку "Обратить внимание модераторов".
Показать сообщения:   
Начать новую тему   Ответить на тему    Торрент-трекер NNM-Club -> Классика кино и Старые фильмы до 90-х -> Старые Зарубежные Фильмы (HD*Rip/LQ, DVDRip, SATRip, VHSRip) Часовой пояс: GMT + 3
Страница 1 из 1