Классический форум-трекер
canvas not supported
Нас вместе: 4 090 257

Голая правда / The Ugly Truth (2009) [1080p] BDRemux


 
 
RSS
Начать новую тему   Ответить на тему    Торрент-трекер NNM-Club -> Зарубежное кино -> Зарубежные Фильмы (HD, UHD-LQ)
Автор Сообщение
Den4ik_Rus_66 ®
Стаж: 7 лет 8 мес.
Сообщений: 198
Ratio: 1M
Раздал: 70,6 TB
Поблагодарили: 26573
100%
Откуда: С другой планеты
Голая правда / The Ugly Truth (2009) BDRemux
«Мужские ценности против Женских идеалов»

Русское название: Голая правда
Оригинальное название: The Ugly Truth
Год выпуска: 2009
Страна: США
Жанр: Мелодрама, Комедия
Описание фильма:
Он — восходящая звезда нового телешоу, и его жизненное кредо — «секс, наркотики и рок-н-ролл», он совсем не признает равенство полов, политкорректность и так далее… В общем, настоящий мачо.
Режиссер: Роберт Лукетич
Продюсер: Кимберли Ди Бонавентура, Стивен Ретер, Том Розенберг
Актеры: Кэтрин Хейгл, Жерар Батлер, Бри Тернер, Эрик Винтер, Ник Сирси, Jesse D. Goins, Шерил Хайнс, Джон Майкл Хиггинс, Ной Мэтьюз, Бонни Соммервиль
Продолжительность: 01:35:57
Перевод: Дублированный
Язык субтитров: Русские, Английские
Вид субтитров: Вшитые, отключаемые

Дата мировой премьеры: 16 июля 2009
Дата российской премьеры: 17 сентября 2009, «BVSPR Sony»
Дата выхода DVD релиза: 15 октября 2009, «Columbia/Sony»
Дата выхода Blu-Ray релиза: 10 декабря 2009, «Columbia/Sony»
Качество видео: BDRemux
Контейнер: MKV
Видеокодек: MPEG-4 AVC/H.264
Аудиокодек: AC-3, DTS-HD MA
Видео: 1920x1080, 23.976 fps, ~27,2 mb/s
Аудио 1: Русский, AC-3, 448 kbps, 6 каналов, 16 bit, (L, C, R, l, r) + LFE
Аудио 2: Украинский, AC-3, 448 kbps, 6 каналов, 16 bit, (L, C, R, l, r) + LFE
Аудио 3: Английский, DTS-HD MA, 5.1, 48 kHz, 2889 kbps, 24 bit, 6 каналов, (DTS Core: 5.1, 48 kHz, 1536 kbps, 24 bit, 6 каналов) - (L, C, R, l, r) + LFE
Формат : Matroska
Версия формата : Version 2
Размер файла : 20,8 Гбайт
Продолжительность : 1 ч. 35 м.
Режим общего битрейта : Переменный
Общий поток : 31,0 Мбит/сек
Дата кодирования : UTC 2009-11-16 11:28:09
Программа кодирования : mkvmerge v2.9.8 ('C'est le bon') built on Aug 13 2009 12:49:06
Библиотека кодирования : libebml v0.7.7 + libmatroska v0.8.1

Видео
Идентификатор : 1
Формат : AVC
Формат/Информация : Advanced Video Codec
Профиль формата : High@L4.1
Параметр CABAC формата : Да
Параметр ReFrames формата : 3 кадра
Режим смешивания : Container profile=Unknown@0.0
Идентификатор кодека : V_MPEG4/ISO/AVC
Продолжительность : 1 ч. 35 м.
Вид битрейта : Переменный
Битрейт : 27,2 Мбит/сек
Максимальный битрейт : 40,0 Мбит/сек
Ширина : 1920 пикселей
Высота : 1080 пикселей
Соотношение сторон : 16:9
Частота кадров : 23,976 кадра/сек
Цветовое пространство : YUV
Субдискретизация насыщенности : 4:2:0
Битовая глубина : 8 бит
Тип развёртки : Прогрессивная
Бит/(Пиксели*Кадры) : 0.548
Размер потока : 17,8 Гбайт (86%)
Библиотека кодирования : x264 core 78 r1310 ec46ace
Настройки программы : cabac=1 / ref=3 / deblock=1:0:0 / analyse=0x3:0x113 / me=hex / subme=7 / psy=1 / psy_rd=1.0:0.0 / mixed_ref=1 / me_range=16 / chroma_me=1 / trellis=1 / 8x8dct=1 / cqm=0 / deadzone=21,11 / chroma_qp_offset=-2 / threads=12 / slices=4 / nr=0 / decimate=1 / mbaff=0 / constrained_intra=0 / bframes=3 / b_pyramid=0 / b_adapt=1 / b_bias=0 / direct=1 / wpredb=1 / keyint=24 / keyint_min=1 / scenecut=40 / rc_lookahead=24 / rc=2pass / mbtree=1 / bitrate=27226 / ratetol=1.0 / qcomp=0.60 / qpmin=0 / qpmax=51 / qpstep=4 / cplxblur=20.0 / qblur=0.5 / vbv_maxrate=35000 / vbv_bufsize=30000 / ip_ratio=1.10 / aq=1:1.0
Язык : English
Default : Да
Forced : Нет

Аудио #1
Идентификатор : 2
Формат : AC-3
Формат/Информация : Audio Coding 3
Расширение режима : CM (complete main)
Идентификатор кодека : A_AC3
Продолжительность : 1 ч. 35 м.
Вид битрейта : Постоянный
Битрейт : 448 Кбит/сек
Каналы : 6 каналов
Расположение каналов : Front: L C R, Side: L R, LFE
Частота : 48,0 КГц
Битовая глубина : 16 бит
Метод сжатия : С потерями
Размер потока : 307 Мбайт (1%)
Заголовок : AC3 5.1 448 kbps
Язык : Russian
Default : Да
Forced : Нет

Аудио #2
Идентификатор : 3
Формат : AC-3
Формат/Информация : Audio Coding 3
Расширение режима : CM (complete main)
Идентификатор кодека : A_AC3
Продолжительность : 1 ч. 35 м.
Вид битрейта : Постоянный
Битрейт : 448 Кбит/сек
Каналы : 6 каналов
Расположение каналов : Front: L C R, Side: L R, LFE
Частота : 48,0 КГц
Битовая глубина : 16 бит
Метод сжатия : С потерями
Размер потока : 307 Мбайт (1%)
Заголовок : AC3 5.1 448 kbps
Язык : Ukrainian
Default : Нет
Forced : Нет

Аудио #3
Идентификатор : 4
Формат : DTS
Формат/Информация : Digital Theater Systems
Профиль формата : MA / Core
Идентификатор кодека : A_DTS
Продолжительность : 1 ч. 35 м.
Вид битрейта : Переменный
Битрейт : 2926 Кбит/сек / 1510 Кбит/сек
Каналы : 6 каналов
Расположение каналов : Front: L C R, Side: L R, LFE
Частота : 48,0 КГц
Битовая глубина : 24 бит
Метод сжатия : Без потерь / Lossy
Заголовок : DTS-HD Master Audio, 5.1, 2889 kbps, 24 bit, Lossless (1536 kbps core)
Язык : English
Default : Нет
Forced : Нет

Текст #1
Идентификатор : 5
Формат : UTF-8
Идентификатор кодека : S_TEXT/UTF8
Идентификатор кодека/Информация : UTF-8 Plain Text
Язык : Russian
Default : Нет
Forced : Нет

Текст #2
Идентификатор : 6
Формат : UTF-8
Идентификатор кодека : S_TEXT/UTF8
Идентификатор кодека/Информация : UTF-8 Plain Text
Язык : English
Default : Нет
Forced : Нет

Скриншоты:




Не забудь сказать -
Всем приятного просмотра!!!
Время раздачи: 24/7 до 5 сидов
Golaya pravda.mkv[nnm-club.ru].torrent
 Торрент: Платиновая раздача  Зарегистрирован
 
Скачать


 Зарегистрирован:   12 Июн 2012 09:33:16
 Размер:   20,8 GB  (
 Рейтинг:   4,9 (Голосов: 26)
 Поблагодарили:   69
 Проверка:   Оформление проверено модератором 13 Июн 2012 15:43:53
Как cкачать  ·  Как раздать  ·  Правильно оформить  ·  Поднять ратио!  

_________________
Нет девушки, Нет денег, Несправедливо? Мне пофиг, Я, Раздолбай!
Loading...
madboqka
Стаж: 9 лет 5 мес.
Сообщений: 83
Ratio: 0,843
Раздал: 2,227 TB
100%
russia.gif
что за Жерар? Джерард
Показать сообщения:   
Начать новую тему   Ответить на тему    Торрент-трекер NNM-Club -> Зарубежное кино -> Зарубежные Фильмы (HD, UHD-LQ) Часовой пояс: GMT + 3
Страница 1 из 1