Классический форум-трекер
canvas not supported
Нас вместе: 4 103 016

East Of The Wall / Year Of No Light / Rosetta ‎– Split (2010) [FLAC|Lossless] <Math Rock, Hardcore, Post Rock>


 
 
RSS
Начать новую тему   Ответить на тему    Торрент-трекер NNM-Club -> Rock, Alternative, Punk, Metal -> Metal (Lossless)
Автор Сообщение
Fall Into The Sky ®
Стаж: 10 лет 10 мес.
Сообщений: 8074
Ratio: 42,457
Раздал: 18,62 TB
Поблагодарили: 31154
100%
East Of The Wall / Year Of No Light / Rosetta ‎– Split (2010)

Image
Год: 2010
Жанр: Math Rock, Hardcore, Post Rock
Лейбл: Translation Loss Records – TL 41-2
Формат: CD, Album

Продолжительность: 00:30:39
Аудиокодек: FLAC (image + .cue)
Битрейт аудио: Lossless

Треклист:
01. East Of The Wall - Scumbrella 1 - Mud Button (01:28)
02. East Of The Wall - Scumbrella 2 - Silt (01:03)
03. East Of The Wall - Scumbrella 3 - Dirt Merchant (07:50)
04. Year Of No Light - Cimmeria (08:30)
05. Year Of No Light - Metanoia (04:29)
06. Rosetta - Homesick (07:16)

Приятного прослушивания.

Код:
Exact Audio Copy V0.99 prebeta 4 from 23. January 2008

Отчёт EAC об извлечении, выполненном 22. февраля 2010, 11:26

East Of The Wall-Year Of No Light-Rosetta / Split

Дисковод: HL-DT-STDVD-ROM GDR8164B   Adapter: 0  ID: 1

Режим чтения                 : Достоверность
Использование точного потока : Да
Отключение кэша аудио        : Да
Использование указателей C2  : Нет

Коррекция смещения при чтении                     : 102
Способность читать области Lead-in и Lead-out     : Нет
Заполнение пропущенных сэмплов тишиной            : Да
Удаление блоков с тишиной в начале и конце        : Нет
При вычислениях CRC использовались нулевые сэмплы : Да
Интерфейс                                         : Установленный внешний ASPI-интерфейс

Выходной формат          : Пользовательский кодировщик
Выбранный битрейт        : 128 kBit/s
Качество                 : Высокий
Добавление ID3-тэга      : Нет
Утилита сжатия           : C:\Program Files\Exact Audio Copy\Flac\flac.exe
Дополнительные параметры : -6 -V -T "ARTIST=%a" -T "TITLE=%t" -T "ALBUM=%g" -T "DATE=%y" -T "TRACKNUMBER=%n" -T "GENRE=%m" -T "COMMENT=%e" %s -o %d

TOC извлечённого CD

     Трек |   Старт  | Длительность | Начальный сектор | Конечный сектор
    ---------------------------------------------------------------------
       1  |  0:00.00 |    1:28.36   |           0      |       6635
       2  |  1:28.36 |    1:03.54   |        6636      |      11414
       3  |  2:32.15 |    7:50.03   |       11415      |      46667
       4  | 10:22.18 |    8:30.35   |       46668      |      84952
       5  | 18:52.53 |    4:29.54   |       84953      |     105181
       6  | 23:22.32 |    7:16.61   |      105182      |     137942

Характеристики диапазона извлечения и сообщения об ошибках

Выбранный диапазон

     Имя файла D:\East Of The Wall-Year Of No Light-Rosetta 2009 - Split\2009 - Split.wav

     Пиковый уровень 98.8 %
     Качество диапазона 100.0 %
     CRC копии 97ABD228
     Копирование... OK

Ошибок не произошло

Конец отчёта
Код:
-----------------------

DON'T MODIFY THIS FILE

-----------------------

PERFORMER: auCDtect Task Manager, ver. 1.5.1RC4 build 1.5.1.5
Copyright (c) 2008-2010 y-soft. All rights reserved
http://y-soft.org

ANALYZER: auCDtect: CD records authenticity detector, version 0.8.2
Copyright (c) 2004 Oleg Berngardt. All rights reserved.
Copyright (c) 2004 Alexander Djourik. All rights reserved.

FILE: 2009 - Split.flac
  Size: 211306259 Hash: 87EF0944A5FFF69F2EAB2ECAB255039C Accuracy: -m0
  Conclusion: CDDA 100%
  Signature: 3860EC2D31BE34B59A8A9DC414CE8C99A70229BC
2010 - Split (nnm-club).torrent
 Торрент: Платиновая раздача  Зарегистрирован
 
Скачать


 Зарегистрирован:   12 Июн 2012 09:45:27
 Размер:   205 MB  (
 Рейтинг:    (Голосов: 4)
 Поблагодарили:   12
 Проверка:   Оформление проверено модератором 12 Июн 2012 09:45:41
Как cкачать  ·  Как раздать  ·  Правильно оформить  ·  Поднять ратио!  

_________________
In Excelsis.
Показать сообщения:   
Начать новую тему   Ответить на тему    Торрент-трекер NNM-Club -> Rock, Alternative, Punk, Metal -> Metal (Lossless) Часовой пояс: GMT + 3
Страница 1 из 1