Классический форум-трекер
canvas not supported
Нас вместе: 4 103 027

Rosetta - 6 albums (2005-2011) [FLAC|Lossless] <Post-Metal, Sludge, Post-Rock, Ambient, Post-Hardcore>


 
 
RSS
Начать новую тему   Ответить на тему    Торрент-трекер NNM-Club -> Rock, Alternative, Punk, Metal -> Metal (Lossless)
Автор Сообщение
Fall Into The Sky ®
Стаж: 10 лет 10 мес.
Сообщений: 8074
Ratio: 42,457
Раздал: 18,62 TB
Поблагодарили: 31155
100%
Rosetta - 6 albums (2005-2011)


Год: 2005-2011
Жанр: Post-Metal, Sludge, Post-Rock, Ambient, Post-Hardcore
Продолжительность: 05:38:03

Аудиокодек: FLAC
Битрейт аудио: Lossless


Image
Продолжительность: 01:58:13

Треклист:
CD1: (00:58:05)
01. Départe (08:12)
02. Europa (10:23)
03. Absent (09:43)
04. Itinérant (16:14)
05. Au Pays Natal (13:32)
CD2: (01:00:07)
01. Deneb (08:13)
02. Capella (10:25)
03. Beta Aquilae (09:45)
04. Ross 128 (16:14)
05. Sol (15:28)

Код:
Exact Audio Copy V0.99 prebeta 4 from 23. January 2008

EAC extraction logfile from 7. April 2008, 17:10

Rosetta / The Galilean Satellites CD1

Used drive  : LITE-ON DVDRW SOHW-1213S   Adapter: 3  ID: 0

Read mode               : Secure
Utilize accurate stream : Yes
Defeat audio cache      : Yes
Make use of C2 pointers : No

Read offset correction                      : 12
Overread into Lead-In and Lead-Out          : No
Fill up missing offset samples with silence : Yes
Delete leading and trailing silent blocks   : No
Null samples used in CRC calculations       : Yes
Used interface                              : Native Win32 interface for Win NT & 2000

Used output format : Internal WAV Routines
Sample format      : 44.100 Hz; 16 Bit; Stereo

TOC of the extracted CD

     Track |   Start  |  Length  | Start sector | End sector
    ---------------------------------------------------------
        1  |  0:00.00 |  8:13.67 |         0    |    37041
        2  |  8:13.67 | 10:25.31 |     37042    |    83947
        3  | 18:39.23 |  9:45.22 |     83948    |   127844
        4  | 28:24.45 | 16:14.52 |    127845    |   200946
        5  | 44:39.22 | 13:32.22 |    200947    |   261868

Range status and errors

Selected range

     Filename C:\Rosetta - The Galilean Satellites CD1.wav

     Peak level 100.0 %
     Range quality 100.0 %
     Copy CRC 203CE230
     Copy OK

No errors occurred

AccurateRip summary

Track  1  accurately ripped (confidence 6)  [7C6866DF]
Track  2  accurately ripped (confidence 6)  [E6050FF0]
Track  3  accurately ripped (confidence 6)  [B4B209EB]
Track  4  accurately ripped (confidence 6)  [BA176EDB]
Track  5  accurately ripped (confidence 6)  [BC1BBB65]

All tracks accurately ripped

End of status report
Код:
Exact Audio Copy V0.99 prebeta 4 from 23. January 2008

EAC extraction logfile from 7. April 2008, 17:39

Rosetta / The Galilean Satellites CD2

Used drive  : LITE-ON DVDRW SOHW-1213S   Adapter: 3  ID: 0

Read mode               : Secure
Utilize accurate stream : Yes
Defeat audio cache      : Yes
Make use of C2 pointers : No

Read offset correction                      : 12
Overread into Lead-In and Lead-Out          : No
Fill up missing offset samples with silence : Yes
Delete leading and trailing silent blocks   : No
Null samples used in CRC calculations       : Yes
Used interface                              : Native Win32 interface for Win NT & 2000

Used output format : Internal WAV Routines
Sample format      : 44.100 Hz; 16 Bit; Stereo

TOC of the extracted CD

     Track |   Start  |  Length  | Start sector | End sector
    ---------------------------------------------------------
        1  |  0:00.00 |  8:13.67 |         0    |    37041
        2  |  8:13.67 | 10:25.31 |     37042    |    83947
        3  | 18:39.23 |  9:45.22 |     83948    |   127844
        4  | 28:24.45 | 16:14.52 |    127845    |   200946
        5  | 44:39.22 | 15:28.52 |    200947    |   270598

Range status and errors

Selected range

     Filename C:\Rosetta - The Galilean Satellites CD2.wav

     Peak level 96.6 %
     Range quality 100.0 %
     Copy CRC 4EE8B011
     Copy OK

No errors occurred

AccurateRip summary

Track  1  accurately ripped (confidence 5)  [F5299EC3]
Track  2  accurately ripped (confidence 5)  [BA977110]
Track  3  accurately ripped (confidence 5)  [678D3328]
Track  4  accurately ripped (confidence 5)  [2C2DF217]
Track  5  accurately ripped (confidence 5)  [A89279B8]

All tracks accurately ripped

End of status report
Код:
-----------------------

DON'T MODIFY THIS FILE

-----------------------

PERFORMER: auCDtect Task Manager, ver. 1.5.1RC4 build 1.5.1.5
Copyright (c) 2008-2010 y-soft. All rights reserved
http://y-soft.org

ANALYZER: auCDtect: CD records authenticity detector, version 0.8.2
Copyright (c) 2004 Oleg Berngardt. All rights reserved.
Copyright (c) 2004 Alexander Djourik. All rights reserved.

FILE: Rosetta - 2005 - The Galilean Satellites CD2.flac
  Size: 375759032 Hash: C1F43230A97BCA90E0DBC9BA891E3B26 Accuracy: -m0
  Conclusion: CDDA 100%
  Signature: 0B884C05A52D4329533FF405DEBA86D2D460108C
FILE: Rosetta - 2005 - The Galilean Satellites CD1.flac
  Size: 428685484 Hash: 70D5DC6FAD46E92FDF6CEDE082803B3B Accuracy: -m0
  Conclusion: CDDA 100%
  Signature: 2FB7E68E67BF8B5028C23AFB5DBE84C921D40276
Image
Продолжительность: 01:04:42

Треклист:
01. Red In Tooth And Claw (12:14)
02. Lift (Part 1) (05:06)
03. Lift (Part 2) (03:19)
04. Lift (Part 3) (06:08)
05. Wake (09:27)
06. (Temet Nosce) (14:55)
07. Monument (13:30)

Код:
Exact Audio Copy V0.99 prebeta 4 from 23. January 2008

EAC extraction logfile from 5. April 2008, 1:31

Rosetta / Wake/Lift

Used drive  : LITE-ON DVDRW SOHW-1213S   Adapter: 3  ID: 0

Read mode               : Secure
Utilize accurate stream : Yes
Defeat audio cache      : Yes
Make use of C2 pointers : No

Read offset correction                      : 12
Overread into Lead-In and Lead-Out          : No
Fill up missing offset samples with silence : Yes
Delete leading and trailing silent blocks   : No
Null samples used in CRC calculations       : Yes
Used interface                              : Native Win32 interface for Win NT & 2000

Used output format : Internal WAV Routines
Sample format      : 44.100 Hz; 16 Bit; Stereo

TOC of the extracted CD

     Track |   Start  |  Length  | Start sector | End sector
    ---------------------------------------------------------
        1  |  0:00.00 | 12:14.71 |         0    |    55120
        2  | 12:14.71 |  5:06.12 |     55121    |    78082
        3  | 17:21.08 |  3:19.16 |     78083    |    93023
        4  | 20:40.24 |  6:08.38 |     93024    |   120661
        5  | 26:48.62 |  9:27.04 |    120662    |   163190
        6  | 36:15.66 | 14:55.71 |    163191    |   230386
        7  | 51:11.62 | 13:30.71 |    230387    |   291207

Range status and errors

Selected range

     Filename C:\Rosetta - Wake-Lift.wav

     Peak level 98.9 %
     Range quality 100.0 %
     Copy CRC 7A6BD1B5
     Copy OK

No errors occurred

AccurateRip summary

Track  1  accurately ripped (confidence 7)  [5E021090]
Track  2  accurately ripped (confidence 7)  [CEDA8008]
Track  3  accurately ripped (confidence 7)  [E7921C64]
Track  4  accurately ripped (confidence 7)  [4AD6D7CC]
Track  5  accurately ripped (confidence 7)  [59C159E4]
Track  6  accurately ripped (confidence 7)  [FCE7473F]
Track  7  accurately ripped (confidence 7)  [3EB3EDF2]

All tracks accurately ripped

End of status report
Код:
-----------------------

DON'T MODIFY THIS FILE

-----------------------

PERFORMER: auCDtect Task Manager, ver. 1.5.1RC4 build 1.5.1.5
Copyright (c) 2008-2010 y-soft. All rights reserved
http://y-soft.org

ANALYZER: auCDtect: CD records authenticity detector, version 0.8.2
Copyright (c) 2004 Oleg Berngardt. All rights reserved.
Copyright (c) 2004 Alexander Djourik. All rights reserved.

FILE: Rosetta - 2007 - Wake-Lift.flac
  Size: 406688277 Hash: 2E38A942AC722A68A736D3BA669C8D05 Accuracy: -m0
  Conclusion: CDDA 99%
  Signature: 30014C709A291AEE7540A61B8A6FCBF66821297F
Image
Продолжительность: 00:41:40

Треклист:
01. I (11:32)
02. II (09:27)
03. III (10:34)
04. IV (10:06)

Код:
Exact Audio Copy V0.99 prebeta 4 from 23. January 2008

EAC extraction logfile from 5. April 2008, 0:59

Rosetta / Cleansing Undertones Of Wake/Lift

Used drive  : LITE-ON DVDRW SOHW-1213S   Adapter: 3  ID: 0

Read mode               : Secure
Utilize accurate stream : Yes
Defeat audio cache      : Yes
Make use of C2 pointers : No

Read offset correction                      : 12
Overread into Lead-In and Lead-Out          : No
Fill up missing offset samples with silence : Yes
Delete leading and trailing silent blocks   : No
Null samples used in CRC calculations       : Yes
Used interface                              : Native Win32 interface for Win NT & 2000

Used output format : Internal WAV Routines
Sample format      : 44.100 Hz; 16 Bit; Stereo

TOC of the extracted CD

     Track |   Start  |  Length  | Start sector | End sector
    ---------------------------------------------------------
        1  |  0:00.00 | 11:32.11 |         0    |    51910
        2  | 11:32.11 |  9:27.53 |     51911    |    94488
        3  | 20:59.64 | 10:34.60 |     94489    |   142098
        4  | 31:34.49 | 10:06.32 |    142099    |   187580

Range status and errors

Selected range

     Filename C:\Rosetta - Cleansing Undertones Of Wake-Lift.wav
     Peak level 100.0 %
     Range quality 100.0 %
     Copy CRC 5B87AD9C
     Copy OK

No errors occurred

AccurateRip summary

Track  1  accurately ripped (confidence 2)  [35F924C4]
Track  2  accurately ripped (confidence 2)  [F1D05AAF]
Track  3  accurately ripped (confidence 2)  [F9440457]
Track  4  accurately ripped (confidence 2)  [AB585F78]

All tracks accurately ripped

End of status report
Код:
-----------------------

DON'T MODIFY THIS FILE

-----------------------

PERFORMER: auCDtect Task Manager, ver. 1.5.1RC4 build 1.5.1.5
Copyright (c) 2008-2010 y-soft. All rights reserved
http://y-soft.org

ANALYZER: auCDtect: CD records authenticity detector, version 0.8.2
Copyright (c) 2004 Oleg Berngardt. All rights reserved.
Copyright (c) 2004 Alexander Djourik. All rights reserved.

FILE: Rosetta - 2007 - Cleansing Undertones Of Wake-Lift.flac
  Size: 294719895 Hash: C8CFA0FC7207BC1564C80D72C240B87E Accuracy: -m0
  Conclusion: CDDA 100%
  Signature: ACA4F6CC286A7BDF82FC9E4415CC7C0C19B5FD6B
Image
Продолжительность: 00:47:41

Треклист:
01. Balboa - Primitive Accumulation (02:54)
02. Balboa - Kaddish (09:54)
03. Balboa - Planet of Slums (03:17)
04. Rosetta - TMA-1 (10:23)
05. Rosetta - Clavius (12:20)
06. Balboa+Rosetta - Project Mercury (08:51)

Код:
Exact Audio Copy V0.99 prebeta 4 from 23. January 2008

EAC extraction logfile from 18. March 2009, 22:28

Balboa & Rosetta / Project Mercury

Used drive  : TSSTcorpDVD+-RW TS-L632H   Adapter: 1  ID: 0

Read mode               : Secure
Utilize accurate stream : Yes
Defeat audio cache      : Yes
Make use of C2 pointers : No

Read offset correction                      : 6
Overread into Lead-In and Lead-Out          : No
Fill up missing offset samples with silence : Yes
Delete leading and trailing silent blocks   : No
Null samples used in CRC calculations       : Yes
Used interface                              : Native Win32 interface for Win NT & 2000
Gap handling                                : Appended to previous track

Used output format              : User Defined Encoder
Selected bitrate                : 128 kBit/s
Quality                         : High
Add ID3 tag                     : Yes
Command line compressor         : C:\Program Files\FLAC\flac.exe
Additional command line options : V -8 -T "artist=%a" -T "title=%t" -T "album=%g" -T "date=%y" -T "tracknumber=%n" -T "genre=%m" %s

TOC of the extracted CD

     Track |   Start  |  Length  | Start sector | End sector
    ---------------------------------------------------------
        1  |  0:00.00 |  2:54.11 |         0    |    13060
        2  |  2:54.11 |  9:54.19 |     13061    |    57629
        3  | 12:48.30 |  3:17.35 |     57630    |    72439
        4  | 16:05.65 | 10:23.12 |     72440    |   119176
        5  | 26:29.02 | 12:20.47 |    119177    |   174723
        6  | 38:49.49 |  8:51.49 |    174724    |   214597

Track  1

     Filename C:\Users\Daniel\Documents\FLAC\Balboa & Rosetta\Project Mercury\01 - Primitive Accumulation ~ Balboa.wav

     Pre-gap length  0:00:02.00

     Peak level 99.1 %
     Track quality 100.0 %
     Test CRC 331D7030
     Copy CRC 331D7030
     Track not present in AccurateRip database
     Copy OK

Track  2

     Filename C:\Users\Daniel\Documents\FLAC\Balboa & Rosetta\Project Mercury\02 - Kaddish ~ Balboa.wav

     Peak level 99.1 %
     Track quality 100.0 %
     Test CRC 1F3D9C56
     Copy CRC 1F3D9C56
     Track not present in AccurateRip database
     Copy OK

Track  3

     Filename C:\Users\Daniel\Documents\FLAC\Balboa & Rosetta\Project Mercury\03 - Planet of Slums ~ Balboa.wav

     Pre-gap length  0:09:54.19

     Peak level 99.1 %
     Track quality 100.0 %
     Test CRC 66F6C0CD
     Copy CRC 66F6C0CD
     Track not present in AccurateRip database
     Copy OK

Track  4

     Filename C:\Users\Daniel\Documents\FLAC\Balboa & Rosetta\Project Mercury\04 - TMA-1 ~ Rosetta.wav

     Pre-gap length  0:13:11.54

     Peak level 99.1 %
     Track quality 100.0 %
     Test CRC CFFB9018
     Copy CRC CFFB9018
     Track not present in AccurateRip database
     Copy OK

Track  5

     Filename C:\Users\Daniel\Documents\FLAC\Balboa & Rosetta\Project Mercury\05 - Clavius ~ Rosetta.wav

     Pre-gap length  0:23:34.66

     Peak level 99.2 %
     Track quality 100.0 %
     Test CRC FD3202D2
     Copy CRC FD3202D2
     Track not present in AccurateRip database
     Copy OK

Track  6

     Filename C:\Users\Daniel\Documents\FLAC\Balboa & Rosetta\Project Mercury\06 - Project Mercury ~ Balboa+Rosetta.wav

     Pre-gap length  0:35:55.38

     Peak level 99.9 %
     Track quality 99.9 %
     Test CRC 97F64331
     Copy CRC 97F64331
     Track not present in AccurateRip database
     Copy OK

None of the tracks are present in the AccurateRip database

No errors occurred

End of status report
Код:
-----------------------

DON'T MODIFY THIS FILE

-----------------------

PERFORMER: auCDtect Task Manager, ver. 1.5.1RC4 build 1.5.1.5
Copyright (c) 2008-2010 y-soft. All rights reserved
http://y-soft.org

ANALYZER: auCDtect: CD records authenticity detector, version 0.8.2
Copyright (c) 2004 Oleg Berngardt. All rights reserved.
Copyright (c) 2004 Alexander Djourik. All rights reserved.

FILE: 06 - Project Mercury ~ Balboa+Rosetta.flac
  Size: 60146147 Hash: 97A8413B750C8A60E9D51C49DA118D79 Accuracy: -m0
  Conclusion: CDDA 100%
  Signature: 3575444F011A2B2B0B5030A0FA8F58FBD8EE42AF
FILE: 05 - Clavius ~ Rosetta.flac
  Size: 86797386 Hash: 7623FCE4BBDB55704C55FD3EFA708741 Accuracy: -m0
  Conclusion: CDDA 99%
  Signature: 5E518F4C370661EE6894CBFBF46F1294F311C99C
FILE: 04 - TMA-1 ~ Rosetta.flac
  Size: 74237296 Hash: 45DCA95403326DA2A62DBC3389599200 Accuracy: -m0
  Conclusion: CDDA 100%
  Signature: 1D02D8A83A47874C96F8264DEBC2403FAB5E5062
FILE: 03 - Planet of Slums ~ Balboa.flac
  Size: 23993464 Hash: 6047C43B22955F350D8B9D671A79A7C3 Accuracy: -m0
  Conclusion: CDDA 100%
  Signature: 438E0E995A97CDEBF334A339C5ADD988AE5CFF05
FILE: 02 - Kaddish ~ Balboa.flac
  Size: 66031172 Hash: 6DEA851C2021DA389A24EAD7093BAB63 Accuracy: -m0
  Conclusion: CDDA 100%
  Signature: C061674187C06B5F791AB8A617F40DB33587F324
FILE: 01 - Primitive Accumulation ~ Balboa.flac
  Size: 20524875 Hash: B082DA7E2C93C28962BB07D82C034541 Accuracy: -m0
  Conclusion: CDDA 100%
  Signature: C42823D8C0D7CE0162033B19B7AC07B394961D13
Image
Продолжительность: 00:47:44

Треклист:
01. Ayil (04:59)
02. Je N'en Connais Pas la Fin (06:49)
03. Blue Day for Croatoa (06:37)
04. Release (05:36)
05. Revolve (06:42)
06. Renew (06:08)
07. A Determinism of Morality (10:50)

Код:
Exact Audio Copy V0.99 prebeta 5 from 4. May 2009

EAC extraction logfile from 11. May 2010, 20:00

Rosetta / A Determinism of Morality

Used drive  : HL-DT-STDVDRAM GSA-4167B   Adapter: 0  ID: 1

Read mode               : Secure
Utilize accurate stream : Yes
Defeat audio cache      : Yes
Make use of C2 pointers : No

Read offset correction                      : 667
Overread into Lead-In and Lead-Out          : No
Fill up missing offset samples with silence : Yes
Delete leading and trailing silent blocks   : No
Null samples used in CRC calculations       : Yes
Used interface                              : Native Win32 interface for Win NT & 2000
Gap handling                                : Appended to previous track

Used output format              : User Defined Encoder
Selected bitrate                : 128 kBit/s
Quality                         : High
Add ID3 tag                     : No
Command line compressor         : C:\Program Files (x86)\Flac\flac.exe
Additional command line options : -V -8 -T "artist=%a" -T "title=%t" -T "album=%g" -T "date=%y" -T "tracknumber=%n" -T "genre=%m" %s

TOC of the extracted CD

     Track |   Start  |  Length  | Start sector | End sector
    ---------------------------------------------------------
        1  |  0:00.00 |  4:59.07 |         0    |    22431
        2  |  4:59.07 |  6:49.32 |     22432    |    53138
        3  | 11:48.39 |  6:37.34 |     53139    |    82947
        4  | 18:25.73 |  5:36.23 |     82948    |   108170
        5  | 24:02.21 |  6:42.73 |    108171    |   138393
        6  | 30:45.19 |  6:08.64 |    138394    |   166057
        7  | 36:54.08 | 10:50.42 |    166058    |   214849

Track  1

     Filename C:\01 Rosetta - Ayil.wav

     Pre-gap length  0:00:02.00

     Peak level 100.0 %
     Track quality 100.0 %
     Test CRC FB9D88DB
     Copy CRC FB9D88DB
     Track not present in AccurateRip database
     Copy OK

Track  2

     Filename C:\02 Rosetta - Je N'en Connais Pas la Fin.wav

     Peak level 100.0 %
     Track quality 99.9 %
     Test CRC 5569A822
     Copy CRC 5569A822
     Track not present in AccurateRip database
     Copy OK

Track  3

     Filename C:\03 Rosetta - Blue Day for Croatoa.wav

     Peak level 86.5 %
     Track quality 100.0 %
     Test CRC 5D9DE805
     Copy CRC 5D9DE805
     Track not present in AccurateRip database
     Copy OK

Track  4

     Filename C:\04 Rosetta - Release.wav

     Peak level 100.0 %
     Track quality 100.0 %
     Test CRC 6AE04535
     Copy CRC 6AE04535
     Track not present in AccurateRip database
     Copy OK

Track  5

     Filename C:\05 Rosetta - Revolve.wav

     Peak level 100.0 %
     Track quality 100.0 %
     Test CRC 4E054E68
     Copy CRC 4E054E68
     Track not present in AccurateRip database
     Copy OK

Track  6

     Filename C:\06 Rosetta - Renew.wav

     Peak level 100.0 %
     Track quality 100.0 %
     Test CRC FB892C5A
     Copy CRC FB892C5A
     Track not present in AccurateRip database
     Copy OK

Track  7

     Filename C:\07 Rosetta - A Determinism of Morality.wav

     Peak level 100.0 %
     Track quality 100.0 %
     Test CRC 3F001D0F
     Copy CRC 3F001D0F
     Track not present in AccurateRip database
     Copy OK

None of the tracks are present in the AccurateRip database

No errors occurred

End of status report
Код:
-----------------------

DON'T MODIFY THIS FILE

-----------------------

PERFORMER: auCDtect Task Manager, ver. 1.5.1RC4 build 1.5.1.5
Copyright (c) 2008-2010 y-soft. All rights reserved
http://y-soft.org

ANALYZER: auCDtect: CD records authenticity detector, version 0.8.2
Copyright (c) 2004 Oleg Berngardt. All rights reserved.
Copyright (c) 2004 Alexander Djourik. All rights reserved.

FILE: 07 Rosetta - A Determinism of Morality.flac
  Size: 68145317 Hash: 589D83BC3A9B392E8A0B0F7BDA415AF3 Accuracy: -m0
  Conclusion: CDDA 100%
  Signature: B6267308B86F0C90C29BE4C4784096A6F3806BEA
FILE: 06 Rosetta - Renew.flac
  Size: 40567274 Hash: 6EC45AE283D9888B58AA04897A4147AA Accuracy: -m0
  Conclusion: CDDA 100%
  Signature: 572216D08F4169BDCFF6AABF50018E13552B66AC
FILE: 05 Rosetta - Revolve.flac
  Size: 44692969 Hash: 192CADAADB71061640CD54B1C4B6191E Accuracy: -m0
  Conclusion: CDDA 100%
  Signature: 8EEFD23230C0F98EE674A91A2C56A8E3ECA94A86
FILE: 04 Rosetta - Release.flac
  Size: 38708589 Hash: 3507F420F8B7C2F681BC546F8E67633A Accuracy: -m0
  Conclusion: CDDA 100%
  Signature: DCFB3D5C4C35D9655B31BF80E1BE15EE64CA8616
FILE: 03 Rosetta - Blue Day for Croatoa.flac
  Size: 39542260 Hash: 7BD69A651804EF8376141F35FEA3D079 Accuracy: -m0
  Conclusion: CDDA 100%
  Signature: A3D3CE85BC3A3F7353F87B940133197A322BC231
FILE: 02 Rosetta - Je N'en Connais Pas la Fin.flac
  Size: 48157143 Hash: FBD234D74AA69D991F994FEA023E1945 Accuracy: -m0
  Conclusion: CDDA 100%
  Signature: 94D93EB8AA7A3E3CFFD5CC4410CC4E8E41279AE2
FILE: 01 Rosetta - Ayil.flac
  Size: 34855417 Hash: 9005940C568583B78BE819846D17B572 Accuracy: -m0
  Conclusion: CDDA 100%
  Signature: B62C9E7802D0BFFC6E154B9D62F313812223C68F
Image
Продолжительность: 00:17:59

Треклист:
01. Junius - A Day Dark With Night (08:05)
02. Rosetta - TMA-3 (09:54)

Код:
X Lossless Decoder version 20110924 (136.3)

XLD extraction logfile from 2011-09-28 08:59:20 +0000

Various Artists / Rosetta / Junius Split

Used drive : OPTIARC DVD RW AD-5970H (revision 3APE)

Ripper mode             : XLD Secure Ripper
Disable audio cache     : OK for the drive with a cache less than 1375KiB
Make use of C2 pointers : NO
Read offset correction  : 48
Max retry count         : 100
Gap status              : Analyzed, Appended

TOC of the extracted CD
     Track |   Start  |  Length  | Start sector | End sector
    ---------------------------------------------------------
        1  | 00:00:00 | 08:05:31 |         0    |    36405
        2  | 08:05:31 | 09:54:30 |     36406    |    80985

AccurateRip Summary
    Disc not found in AccurateRip DB.

All Tracks
    Album gain             : -8.64 dB
    Peak                   : 0.996582
    Statistics
        Read error                           : 0
        Jitter error (maybe fixed)           : 0
        Retry sector count                   : 0
        Damaged sector count                 : 0

Track 01
    Filename : /Users/Alex/Music/Rosetta : Junius Split/01 - A Day Dark With Night.flac
    Pre-gap length : 00:02:00

    Track gain             : -7.62 dB
    Peak                   : 0.979706
    CRC32 hash (test run)  : 31695A3D
    CRC32 hash             : 31695A3D
    CRC32 hash (skip zero) : 02C67478
    AccurateRip signature  : 179F39A9
        ->Track not present in AccurateRip database.
    Statistics
        Read error                           : 0
        Jitter error (maybe fixed)           : 0
        Retry sector count                   : 0
        Damaged sector count                 : 0

Track 02
    Filename : /Users/Alex/Music/Rosetta : Junius Split/02 - TMA-3.flac

    Track gain             : -9.12 dB
    Peak                   : 0.996582
    CRC32 hash (test run)  : CE5EF76C
    CRC32 hash             : CE5EF76C
    CRC32 hash (skip zero) : 2EC90C68
    AccurateRip signature  : 319B02D6
        ->Track not present in AccurateRip database.
    Statistics
        Read error                           : 0
        Jitter error (maybe fixed)           : 0
        Retry sector count                   : 0
        Damaged sector count                 : 0

No errors occurred

End of status report
Код:
-----------------------

DON'T MODIFY THIS FILE

-----------------------

PERFORMER: auCDtect Task Manager, ver. 1.5.1RC4 build 1.5.1.5
Copyright (c) 2008-2010 y-soft. All rights reserved
http://y-soft.org

ANALYZER: auCDtect: CD records authenticity detector, version 0.8.2
Copyright (c) 2004 Oleg Berngardt. All rights reserved.
Copyright (c) 2004 Alexander Djourik. All rights reserved.

FILE: 02 - TMA-3.flac
  Size: 68333097 Hash: 1164AD2D1F5EA71455EDCCF4B02C0A5F Accuracy: -m0
  Conclusion: CDDA 100%
  Signature: E65450B07E898B7514E2F7B99B072EFC825B8736
FILE: 01 - A Day Dark With Night.flac
  Size: 58407484 Hash: F3901FAC575AFFFBF27976F50FA2A5E3 Accuracy: -m0
  Conclusion: CDDA 100%
  Signature: 932315D912B3F4A34257B92E77194650D370E564





Приятного прослушивания.
Rosetta (nnm-club).torrent
 Торрент: Платиновая раздача  Зарегистрирован
 
Скачать


 Зарегистрирован:   12 Июн 2012 19:06:28
 Размер:   2,14 GB  (
 Рейтинг:   4,9 (Голосов: 11)
 Поблагодарили:   23
 Проверка:   Оформление проверено модератором 12 Июн 2012 19:07:22
Как cкачать  ·  Как раздать  ·  Правильно оформить  ·  Поднять ратио!  

_________________
In Excelsis.
Показать сообщения:   
Начать новую тему   Ответить на тему    Торрент-трекер NNM-Club -> Rock, Alternative, Punk, Metal -> Metal (Lossless) Часовой пояс: GMT + 3
Страница 1 из 1