Классический форум-трекер
canvas not supported
Нас вместе: 4 121 451

Бронкская история / A Bronx Tale (1993) [1080p] BDRip


 
 
RSS
Начать новую тему   Ответить на тему    Торрент-трекер NNM-Club -> Зарубежное кино -> Зарубежные Фильмы (HD, UHD-LQ)
Автор Сообщение
SNAUTS ®
Ценитель HD
Uploader 1000+
Стаж: 10 лет 2 мес.
Сообщений: 2111
Ratio: 70K
Поблагодарили: 143237
100%
Откуда: .. и только свежий космос
ussr.gif
Бронкская история / A Bronx Tale (1993) [1080p] BDRip

Производство: США
Жанр: Драма, криминал

Описание:
Король бронкской мафии Сонни убил человека. Просто так. Из-за места на парковке. Среди бела дня вытащил пистолет и несколько раз выстрелил. Полиция узнала, что свидетелем преступления был 9-летний Колоджеро, и допросила мальчика. Но Калоджеро не выдавал Сонни. И попал в любимчики мафиози. Что сильно не понравилось водителю автобуса, отцу мальчика. С этого дня началось сотрудничество Сонни и Калоджеро, и, когда мальчик вырос, он не просто стал свидетелем других кровавых деяний своего босса, но и сам оказался на краю пропасти...

Режиссёр: Роберт Де Ниро
Актёры: Роберт Де Ниро, Чазз Пальминтери, Лилло Бранкато, Фрэнсис Капра, Тэрал Хикс, Кэтрин Нардуччи, Клем Касерта, Альфред Саукелли мл., Фрэнк Пьетранголаре, Джо Пеши, Роберт Д’Андреа, Эдди Монтанаро, Фред Фишер, Дэйв Салерно, Джо Д’Онофрио, Луиджи Д’Анджело, Луис Ванариа и др.

Продолжительность: 02:01:34
Перевод: Многоголосый закадровый, Авторский
Субтитры: Английские, Русские (СОЮЗ видео, Екатеринбург Арт)


Рейтинг MPAA: R - Детям до 17 лет обязательно присутствие родителей!!!

Дата мировой премьеры: 14 сентября 1993

Видеокодек: MPEG-4 AVC
Битрейт видео: ~ 8373 Кбит/с
Размер кадра: 1920х1080
Качество видео: BDRip

Аудиокодек:
1. Dolby Digital Русский 5.1 48 kHz 448 kbps (Многоголосый закадровый - Екатеринбург Арт)
2. Dolby Digital Русский 5.1 48 kHz 448 kbps (Многоголосый закадровый - СОЮЗ видео)
3. Dolby Digital Русский 2.0 48 kHz 192 kbps (Авторский - С.Визгунов)
4. Dolby Digital Русский 2.0 48 kHz 192 kbps (Авторский - Л.Володарский)
5. Dolby Digital Английский 2.0 48 kHz 640 kbps
• Чазз Пальминтери отказывался продать права на экранизацию книги до тех пор, пока де Ниро не предоставил ему возможность стать автором сценария и сыграть одну из главных ролей в фильме.
• Фильм поставлен на основе автобиографического произведения Чазза Пальминтери.
• Роберт де Ниро посвятил картину памяти своего отца.
Известие о режиссёрском дебюте одного из лучших актёров кино США, состоявшемся в год его пятидесятилетия, не всех зрителей настраивало на мажорный лад. В предшествующих актёрских работах Роберт Де Ниро нередко повторялся или явно переигрывал — например, представляя в фильме «Бешеный пёс и Глори» фотографа-полицейского, который влюбляется в «девушку мафии». Схожий мотив «душевных поисков» можно обнаружить и в картине «Бронксская повесть». На нашем видеорынке название по привычке перевели завлекательно — «Разборки в Бронксе». Другой вариант — «Сказка Бронкса» — тоже не совсем точен, так как в закадровом финальном монологе героя специально сказано, что поведанная история обычна для Бронкса.

В ленте, которая детально воспроизводит атмосферу одного из нью-йоркских районов в 60-е годы, сочетаются реалистические и условные сцены, повествовательные и чуть сказочные, вернее — романтизированные. Сам режиссёр всё-таки постарше своего персонажа и принадлежит к другому поколению, выросшему в 50-е годы. Но в пьесе Чазза Пальминтери, которая ранее была поставлена на одной из сцен Нью-Йорка, он нашёл близкие, родственные себе биографические моменты. Будучи италоамериканцем из Нью-Йорка, сам Де Ниро переживал в жизни нечто похожее, поэтому и посвятил фильм собственному отцу. Любопытно, что Пальминтери, написавший автобиографическую пьесу о подростке, который подружился с квартальным гангстером Санни, лично решил сыграть кумира своего детства и юности, уже имея опыт (пусть и в комедии «Оскар») воплощения на экране персонажа-мафиози.
General
Complete name : Bronkskaja.istorija.1993.x264.BDRip.1080p.mkv
Format : Matroska
File size : 8.74 GiB
Duration : 2h 1mn
Overall bit rate : 10.3 Mbps
Movie name : <Budweiser>
Encoded date : UTC 2012-06-16 15:28:42
Writing application : mkvmerge v4.2.0 ('No Talking') built on Jul 28 2010 18:38:23
Writing library : libebml v1.0.0 + libmatroska v1.0.0

Video
ID : 1
Format : AVC
Format/Info : Advanced Video Codec
Format profile : High@L4.1
Format settings, CABAC : Yes
Format settings, ReFrames : 4 frames
Codec ID : V_MPEG4/ISO/AVC
Duration : 2h 1mn
Bit rate : 8 373 Kbps
Width : 1 920 pixels
Height : 1 080 pixels
Display aspect ratio : 16:9
Frame rate : 23.976 fps
Color space : YUV
Chroma subsampling : 4:2:0
Bit depth : 8 bits
Scan type : Progressive
Bits/(Pixel*Frame) : 0.168
Stream size : 6.94 GiB (79%)
Writing library : x264 core 125 r2200 999b753
Encoding settings : cabac=1 / ref=4 / deblock=1:0:0 / analyse=0x3:0x113 / me=umh / subme=8 / psy=1 / psy_rd=1.00:0.00 / mixed_ref=1 / me_range=16 / chroma_me=1 / trellis=1 / 8x8dct=1 / cqm=0 / deadzone=21,11 / fast_pskip=1 / chroma_qp_offset=-2 / threads=12 / lookahead_threads=2 / sliced_threads=0 / nr=0 / decimate=1 / interlaced=0 / bluray_compat=0 / constrained_intra=0 / bframes=3 / b_pyramid=2 / b_adapt=2 / b_bias=0 / direct=3 / weightb=1 / open_gop=0 / weightp=2 / keyint=240 / keyint_min=24 / scenecut=40 / intra_refresh=0 / rc_lookahead=50 / rc=2pass / mbtree=1 / bitrate=8373 / ratetol=1.0 / qcomp=0.60 / qpmin=0 / qpmax=69 / qpstep=4 / cplxblur=20.0 / qblur=0.5 / ip_ratio=1.40 / aq=1:1.00
Language : English

Audio #1
ID : 2
Format : AC-3
Format/Info : Audio Coding 3
Mode extension : CM (complete main)
Codec ID : A_AC3
Duration : 2h 1mn
Bit rate mode : Constant
Bit rate : 448 Kbps
Channel(s) : 6 channels
Channel positions : Front: L C R, Side: L R, LFE
Sampling rate : 48.0 KHz
Bit depth : 16 bits
Compression mode : Lossy
Stream size : 390 MiB (4%)
Title : EA
Language : Russian

Audio #2
ID : 3
Format : AC-3
Format/Info : Audio Coding 3
Mode extension : CM (complete main)
Codec ID : A_AC3
Duration : 2h 1mn
Bit rate mode : Constant
Bit rate : 448 Kbps
Channel(s) : 6 channels
Channel positions : Front: L C R, Side: L R, LFE
Sampling rate : 48.0 KHz
Bit depth : 16 bits
Compression mode : Lossy
Stream size : 390 MiB (4%)
Title : Soyuz
Language : Russian

Audio #3
ID : 4
Format : AC-3
Format/Info : Audio Coding 3
Mode extension : CM (complete main)
Codec ID : A_AC3
Duration : 2h 1mn
Bit rate mode : Constant
Bit rate : 192 Kbps
Channel(s) : 2 channels
Channel positions : Front: L R
Sampling rate : 48.0 KHz
Bit depth : 16 bits
Compression mode : Lossy
Stream size : 167 MiB (2%)
Title : Vizgunov
Language : Russian

Audio #4
ID : 5
Format : AC-3
Format/Info : Audio Coding 3
Mode extension : CM (complete main)
Codec ID : A_AC3
Duration : 2h 1mn
Bit rate mode : Constant
Bit rate : 192 Kbps
Channel(s) : 2 channels
Channel positions : Front: L R
Sampling rate : 48.0 KHz
Bit depth : 16 bits
Compression mode : Lossy
Stream size : 167 MiB (2%)
Title : Volodarskiy
Language : Russian

Audio #5
ID : 6
Format : AC-3
Format/Info : Audio Coding 3
Mode extension : CM (complete main)
Codec ID : A_AC3
Duration : 2h 1mn
Bit rate mode : Constant
Bit rate : 640 Kbps
Channel(s) : 2 channels
Channel positions : Front: L R
Sampling rate : 48.0 KHz
Bit depth : 16 bits
Compression mode : Lossy
Stream size : 556 MiB (6%)
Language : English

Text #1
ID : 7
Format : UTF-8
Codec ID : S_TEXT/UTF8
Codec ID/Info : UTF-8 Plain Text
Title : EA
Language : Russian

Text #2
ID : 8
Format : UTF-8
Codec ID : S_TEXT/UTF8
Codec ID/Info : UTF-8 Plain Text
Title : Soyuz
Language : Russian

Text #3
ID : 9
Format : UTF-8
Codec ID : S_TEXT/UTF8
Codec ID/Info : UTF-8 Plain Text
Language : English

Menu
00:00:00.000 : en:00:00:00.000
00:12:44.681 : en:00:12:44.681
00:25:32.114 : en:00:25:32.114
00:33:09.446 : en:00:33:09.446
00:46:20.528 : en:00:46:20.528
00:54:55.334 : en:00:54:55.334
01:04:19.022 : en:01:04:19.022
01:11:43.299 : en:01:11:43.299
01:23:00.893 : en:01:23:00.893
01:28:50.700 : en:01:28:50.700
01:40:22.934 : en:01:40:22.934
01:51:39.610 : en:01:51:39.610
Скриншоты:



Раздача: 24/7
Не забываем говорить спасибо, Вам не сложно, а мне приятно)))
Прошу с раздачи не уходить! Скачал сам, дай и другим скачать!!!
Приятного просмотра)))
[NNM-Club.ru]_Bronkskaja.istorija.1993.x264.BDRip.1080p.mkv.torrent
 Торрент: Платиновая раздача  Зарегистрирован
 
Скачать


Примагнититься
 Зарегистрирован:   01 Авг 2020 16:13:47
 Размер:   8,74 GB  (
 Рейтинг:   4,9 (Голосов: 60)
 Поблагодарили:   249
 Проверка:   Оформление проверено модератором 01 Авг 2020 19:24:38
Как cкачать  ·  Как раздать  ·  Правильно оформить  ·  Поднять ратио!  
lapis21
Стаж: 9 лет 7 мес.
Сообщений: 6
Ratio: 10,705
100%
Откуда: Одинцово
russia.gif
Большое спасибо за 1080р с Володарским
Tolmach
Uploader 500+
Стаж: 13 лет 4 мес.
Сообщений: 1658
Ratio: 2264,705
Раздал: 535,3 TB
Поблагодарили: 28043
100%
Прекрасный фильм, который однозначно заслуживает оживления - куда нынче без DHT? :)

_________________
Восстанавливаю свои релизы; буду признателен коллегам по Клубу за поддержку в их сидировании.
NorthOn
 
Админ
Стаж: 14 лет
Сообщений: 13714
Ratio: 2785,626
Поблагодарили: 14469
100%
nnm-club.gif
Торрент обновлен в рамках акции Включаем DHT в древних раздачах
Просьба к скачавшим ранее и желающим подключиться к раздаче, перекачать торрент-файл.

_________________
Либо я найду путь, либо проложу его...
qazwsx20152014
Стаж: 5 лет
Сообщений: 259
Ratio: 0,746
84.42%
Хороший фильм. Смотрел в детстве, там столько жизненной мудрости.
Gocik1
Стаж: 3 года 9 мес.
Сообщений: 24
Ratio: 19,151
10.42%
Жаль, что не снимают больше таких душевных картин.
Показать сообщения:   
Начать новую тему   Ответить на тему    Торрент-трекер NNM-Club -> Зарубежное кино -> Зарубежные Фильмы (HD, UHD-LQ) Часовой пояс: GMT + 3
Страница 1 из 1