Классический форум-трекер
canvas not supported
Нас вместе: 4 079 548

Маски-шоу [1-60] (1991-2003) DVDRip


Страницы:   Пред.  1, 2, 3  След. 
 
RSS
Начать новую тему   Ответить на тему    Торрент-трекер NNM-Club -> Юмор -> Маски-шоу
Автор Сообщение
Zoggy ®
Стаж: 9 лет 4 мес.
Сообщений: 2
Ratio: 1,776
Поблагодарили: 1185
100%
taiwan.gif
Маски-шоу [1-60] (1991-2003) DVDRip
Название: Маски-шоу [1-60] DVDRip
Режиссер / Телекомпания: Георгий Делиев
Год выпуска: 1991-2003
Жанр: Комедийный сериал

Описание:
Комик-труппа «Маски» Художественный руководитель — Георгий Делиев. Короткометражные фильмы в стиле немого кино. Группа воплощает оригинальный материал в своем собственном, ни на кого не похожем и всё время развивающимся стиле. "Маски" - это фейерверк пантомимы, хореографии,абсурда и весёлых гэгов, где каждый актер развивает свой собственный уникальный образ.
В сериях, снятых в первой половине 1990-х годов, наблюдается насмешка над советской действительностью и, частично, одесскими мотивами, некоторое построено на юморе «ниже пояса». Во второй же половине 1990-х годов происходит отход от этого — смеются уже над новыми порядками, либо юмор и вовсе становится нейтрально-бытовым.

По сути релиз состоит из 2-ух частей. Первая- независимые друг от друга серии приключений труппы.
Вторая (17 серий)- Кабаре "Маски Шоу" при участии «Кабаре-дуэт „Академия“» — советский и российский поп-дуэт, существовавший в 1985—2000 годах в составе Лолиты Милявской и Александра Цекало.
Дуэт прославился исполнением шуточных и иронических песен о любви. В текстах и видеоклипах часто обыгрывалась разница в росте между высокой Лолитой и миниатюрным Александром.

Продолжительность: ~ 25:13:47

Видеокодек: Xvid
Битрейт видео: ~1987kb/s
Размер кадра: 680X510
Качество видео: DVDRip
Аудиокодек: AC3
Битрейт аудио: 254kbps. VBR

Участники: Действующие: Георгий Делиев (1984—н.в.), Борис Барский (1984—н.в.), Наталья Бузько (1984—н.в.), Игорь Малахов (1987—н.в.), Александр Постоленко (1984—н.в.), Михаил Волошин (1986—н.в.), Ирина Токарчук (1992—1996, 2006 — н.в.), Вадим Набоков (2006 — н.в)
Бывшие: Владимир Комаров (1984—1987, 1989—2002, 2006), Юрий Сковороднев (1984—1992), Вадим Поплавский (1992—1993), Эвелина Блёданс (1992—2005), Александр Мигранов (1984—1990) глухонемой актёр
Жанр: Комедийный сериал

Продолжительность: 00:22:39
Видеокодек: Xvid
Битрейт видео: ~1987kb/s
Размер кадра: 680X510
Качество видео: DVDRip
Аудиокодек: AC3
Битрейт аудио: 256kb/s.
General
Format : AVI
Format/Info : Audio Video Interleave
File size : 365 MiB
Duration : 22mn 39s
Overall bit rate : 2 254 Kbps
Writing library : VirtualDub-MPEG2 build 24528/release
Video #0
ID : 0
Format : MPEG-4 Visual
Format profile : Simple@L3
Format settings, BVOP : Yes
Format settings, QPel : No
Format settings, GMC : No warppoints
Format settings, Matrix : Default (H.263)
Muxing mode : Packed bitstream
Codec ID : XVID
Codec ID/Hint : XviD
Duration : 22mn 39s
Bit rate : 1 988 Kbps
Width : 680 pixels
Height : 510 pixels
Display aspect ratio : 4:3
Frame rate : 25.000 fps
Resolution : 24 bits
Colorimetry : 4:2:0
Scan type : Progressive
Bits/(Pixel*Frame) : 0.229
Stream size : 322 MiB (88%)
Writing library : XviD 1.1.0 Beta2 (UTC 2005-04-04)
Audio #1
ID : 1
Format : AC-3
Format/Info : Audio Coding 3
Codec ID : 2000
Duration : 22mn 39s
Bit rate mode : Constant
Bit rate : 256 Kbps
Channel(s) : 2 channels
Channel positions : L R
Sampling rate : 48.0 KHz
Stream size : 41.5 MiB (11%)
Alignment : Aligned on interleaves
Interleave, duration : 40 ms (1.00 video frame)
Interleave, preload duration : 512 ms
Жанр: Комедийный сериал

Продолжительность: 00:22:55
Видеокодек: Xvid
Битрейт видео: ~1987kb/s
Размер кадра: 680X510
Качество видео: DVDRip
Аудиокодек: AC3
Битрейт аудио: 256kb/s.
General
Format : AVI
Format/Info : Audio Video Interleave
File size : 370 MiB
Duration : 22mn 55s
Overall bit rate : 2 256 Kbps
Writing library : VirtualDub-MPEG2 build 24528/release
Video #0
ID : 0
Format : MPEG-4 Visual
Format profile : Simple@L3
Format settings, BVOP : Yes
Format settings, QPel : No
Format settings, GMC : No warppoints
Format settings, Matrix : Default (H.263)
Muxing mode : Packed bitstream
Codec ID : XVID
Codec ID/Hint : XviD
Duration : 22mn 55s
Bit rate : 1 991 Kbps
Width : 680 pixels
Height : 510 pixels
Display aspect ratio : 4:3
Frame rate : 25.000 fps
Resolution : 24 bits
Colorimetry : 4:2:0
Scan type : Progressive
Bits/(Pixel*Frame) : 0.230
Stream size : 326 MiB (88%)
Writing library : XviD 1.1.0 Beta2 (UTC 2005-04-04)
Audio #1
ID : 1
Format : AC-3
Format/Info : Audio Coding 3
Codec ID : 2000
Duration : 22mn 55s
Bit rate mode : Constant
Bit rate : 256 Kbps
Channel(s) : 2 channels
Channel positions : L R
Sampling rate : 48.0 KHz
Stream size : 42.0 MiB (11%)
Alignment : Aligned on interleaves
Interleave, duration : 40 ms (1.00 video frame)
Interleave, preload duration : 512 ms
Жанр: Комедийный сериал

Продолжительность: 00:22:55
Видеокодек: Xvid
Битрейт видео: ~1987kb/s
Размер кадра: 680X510
Качество видео: DVDRip
Аудиокодек: AC3
Битрейт аудио: 256kb/s.
General
Format : AVI
Format/Info : Audio Video Interleave
File size : 370 MiB
Duration : 22mn 55s
Overall bit rate : 2 257 Kbps
Writing library : VirtualDub-MPEG2 build 24528/release
Video #0
ID : 0
Format : MPEG-4 Visual
Format profile : Simple@L3
Format settings, BVOP : Yes
Format settings, QPel : No
Format settings, GMC : No warppoints
Format settings, Matrix : Default (H.263)
Muxing mode : Packed bitstream
Codec ID : XVID
Codec ID/Hint : XviD
Duration : 22mn 55s
Bit rate : 1 991 Kbps
Width : 680 pixels
Height : 510 pixels
Display aspect ratio : 4:3
Frame rate : 25.000 fps
Resolution : 24 bits
Colorimetry : 4:2:0
Scan type : Progressive
Bits/(Pixel*Frame) : 0.230
Stream size : 326 MiB (88%)
Writing library : XviD 1.1.0 Beta2 (UTC 2005-04-04)
Audio #1
ID : 1
Format : AC-3
Format/Info : Audio Coding 3
Codec ID : 2000
Duration : 22mn 55s
Bit rate mode : Constant
Bit rate : 256 Kbps
Channel(s) : 2 channels
Channel positions : L R
Sampling rate : 48.0 KHz
Stream size : 42.0 MiB (11%)
Alignment : Aligned on interleaves
Interleave, duration : 40 ms (1.00 video frame)
Interleave, preload duration : 512 ms
Жанр: Комедийный сериал

Продолжительность: 00:22:57
Видеокодек: Xvid
Битрейт видео: ~1987kb/s
Размер кадра: 680X510
Качество видео: DVDRip
Аудиокодек: AC3
Битрейт аудио: 256kb/s.
General
Format : AVI
Format/Info : Audio Video Interleave
File size : 371 MiB
Duration : 22mn 57s
Overall bit rate : 2 257 Kbps
Writing library : VirtualDub-MPEG2 build 24528/release
Video #0
ID : 0
Format : MPEG-4 Visual
Format profile : Simple@L3
Format settings, BVOP : Yes
Format settings, QPel : No
Format settings, GMC : No warppoints
Format settings, Matrix : Default (H.263)
Muxing mode : Packed bitstream
Codec ID : XVID
Codec ID/Hint : XviD
Duration : 22mn 57s
Bit rate : 1 991 Kbps
Width : 680 pixels
Height : 510 pixels
Display aspect ratio : 4:3
Frame rate : 25.000 fps
Resolution : 24 bits
Colorimetry : 4:2:0
Scan type : Progressive
Bits/(Pixel*Frame) : 0.230
Stream size : 327 MiB (88%)
Writing library : XviD 1.1.0 Beta2 (UTC 2005-04-04)
Audio #1
ID : 1
Format : AC-3
Format/Info : Audio Coding 3
Codec ID : 2000
Duration : 22mn 57s
Bit rate mode : Constant
Bit rate : 256 Kbps
Channel(s) : 2 channels
Channel positions : L R
Sampling rate : 48.0 KHz
Stream size : 42.0 MiB (11%)
Alignment : Aligned on interleaves
Interleave, duration : 40 ms (1.00 video frame)
Interleave, preload duration : 512 ms
Жанр: Комедийный сериал

Продолжительность: 00:22:54
Видеокодек: Xvid
Битрейт видео: ~1987kb/s
Размер кадра: 680X510
Качество видео: DVDRip
Аудиокодек: AC3
Битрейт аудио: 256kb/s.
ñåðèÿ).avi
General
Format : AVI
Format/Info : Audio Video Interleave
File size : 369 MiB
Duration : 22mn 54s
Overall bit rate : 2 255 Kbps
Writing library : VirtualDub-MPEG2 build 24528/release
Video #0
ID : 0
Format : MPEG-4 Visual
Format profile : Simple@L3
Format settings, BVOP : Yes
Format settings, QPel : No
Format settings, GMC : No warppoints
Format settings, Matrix : Default (H.263)
Muxing mode : Packed bitstream
Codec ID : XVID
Codec ID/Hint : XviD
Duration : 22mn 54s
Bit rate : 1 989 Kbps
Width : 680 pixels
Height : 510 pixels
Display aspect ratio : 4:3
Frame rate : 25.000 fps
Resolution : 24 bits
Colorimetry : 4:2:0
Scan type : Progressive
Bits/(Pixel*Frame) : 0.229
Stream size : 326 MiB (88%)
Writing library : XviD 1.1.0 Beta2 (UTC 2005-04-04)
Audio #1
ID : 1
Format : AC-3
Format/Info : Audio Coding 3
Codec ID : 2000
Duration : 22mn 54s
Bit rate mode : Constant
Bit rate : 256 Kbps
Channel(s) : 2 channels
Channel positions : L R
Sampling rate : 48.0 KHz
Stream size : 41.9 MiB (11%)
Alignment : Aligned on interleaves
Interleave, duration : 40 ms (1.00 video frame)
Interleave, preload duration : 512 ms
Жанр: Комедийный сериал

Продолжительность: 00:22:23
Видеокодек: Xvid
Битрейт видео: ~1987kb/s
Размер кадра: 680X510
Качество видео: DVDRip
Аудиокодек: AC3
Битрейт аудио: 256kb/s.
General

Format : AVI
Format/Info : Audio Video Interleave
File size : 362 MiB
Duration : 22mn 23s
Overall bit rate : 2 262 Kbps
Writing library : VirtualDub-MPEG2 build 24528/release
Video #0
ID : 0
Format : MPEG-4 Visual
Format profile : Simple@L3
Format settings, BVOP : Yes
Format settings, QPel : No
Format settings, GMC : No warppoints
Format settings, Matrix : Default (H.263)
Muxing mode : Packed bitstream
Codec ID : XVID
Codec ID/Hint : XviD
Duration : 22mn 23s
Bit rate : 1 996 Kbps
Width : 680 pixels
Height : 510 pixels
Display aspect ratio : 4:3
Frame rate : 25.000 fps
Resolution : 24 bits
Colorimetry : 4:2:0
Scan type : Progressive
Bits/(Pixel*Frame) : 0.230
Stream size : 320 MiB (88%)
Writing library : XviD 1.1.0 Beta2 (UTC 2005-04-04)
Audio #1
ID : 1
Format : AC-3
Format/Info : Audio Coding 3
Codec ID : 2000
Duration : 22mn 23s
Bit rate mode : Constant
Bit rate : 256 Kbps
Channel(s) : 2 channels
Channel positions : L R
Sampling rate : 48.0 KHz
Stream size : 41.0 MiB (11%)
Alignment : Aligned on interleaves
Interleave, duration : 40 ms (1.00 video frame)
Interleave, preload duration : 512 ms
Жанр: Комедийный сериал

Продолжительность: 00:21:05
Видеокодек: Xvid
Битрейт видео: ~1987kb/s
Размер кадра: 680X510
Качество видео: DVDRip
Аудиокодек: AC3
Битрейт аудио: 256kb/s.
General

Format : AVI
Format/Info : Audio Video Interleave
File size : 341 MiB
Duration : 21mn 5s
Overall bit rate : 2 262 Kbps
Writing library : VirtualDub-MPEG2 build 24528/release
Video #0
ID : 0
Format : MPEG-4 Visual
Format profile : Simple@L3
Format settings, BVOP : Yes
Format settings, QPel : No
Format settings, GMC : No warppoints
Format settings, Matrix : Default (H.263)
Muxing mode : Packed bitstream
Codec ID : XVID
Codec ID/Hint : XviD
Duration : 21mn 5s
Bit rate : 1 996 Kbps
Width : 680 pixels
Height : 510 pixels
Display aspect ratio : 4:3
Frame rate : 25.000 fps
Resolution : 24 bits
Colorimetry : 4:2:0
Scan type : Progressive
Bits/(Pixel*Frame) : 0.230
Stream size : 301 MiB (88%)
Writing library : XviD 1.1.0 Beta2 (UTC 2005-04-04)
Audio #1
ID : 1
Format : AC-3
Format/Info : Audio Coding 3
Codec ID : 2000
Duration : 21mn 5s
Bit rate mode : Constant
Bit rate : 256 Kbps
Channel(s) : 2 channels
Channel positions : L R
Sampling rate : 48.0 KHz
Stream size : 38.6 MiB (11%)
Alignment : Aligned on interleaves
Interleave, duration : 40 ms (1.00 video frame)
Interleave, preload duration : 512 ms
Жанр: Комедийный сериал

Продолжительность: 00:25:43
Видеокодек: Xvid
Битрейт видео: ~1987kb/s
Размер кадра: 680X510
Качество видео: DVDRip
Аудиокодек: AC3
Битрейт аудио: 256kb/s.
General
Format : AVI
Format/Info : Audio Video Interleave
File size : 415 MiB
Duration : 25mn 43s
Overall bit rate : 2 254 Kbps
Writing library : VirtualDub-MPEG2 build 24528/release
Video #0
ID : 0
Format : MPEG-4 Visual
Format profile : Simple@L3
Format settings, BVOP : Yes
Format settings, QPel : No
Format settings, GMC : No warppoints
Format settings, Matrix : Default (H.263)
Muxing mode : Packed bitstream
Codec ID : XVID
Codec ID/Hint : XviD
Duration : 25mn 43s
Bit rate : 1 988 Kbps
Width : 680 pixels
Height : 510 pixels
Display aspect ratio : 4:3
Frame rate : 25.000 fps
Resolution : 24 bits
Colorimetry : 4:2:0
Scan type : Progressive
Bits/(Pixel*Frame) : 0.229
Stream size : 366 MiB (88%)
Writing library : XviD 1.1.0 Beta2 (UTC 2005-04-04)
Audio #1
ID : 1
Format : AC-3
Format/Info : Audio Coding 3
Codec ID : 2000
Duration : 25mn 43s
Bit rate mode : Constant
Bit rate : 256 Kbps
Channel(s) : 2 channels
Channel positions : L R
Sampling rate : 48.0 KHz
Stream size : 47.1 MiB (11%)
Alignment : Aligned on interleaves
Interleave, duration : 40 ms (1.00 video frame)
Interleave, preload duration : 512 ms
Жанр: Комедийный сериал

Продолжительность: 00:25:40
Видеокодек: Xvid
Битрейт видео: ~1987kb/s
Размер кадра: 680X510
Качество видео: DVDRip
Аудиокодек: AC3
Битрейт аудио: 256kb/s.
General
Format : AVI
Format/Info : Audio Video Interleave
File size : 414 MiB
Duration : 25mn 40s
Overall bit rate : 2 255 Kbps
Writing library : VirtualDub-MPEG2 build 24528/release
Video #0
ID : 0
Format : MPEG-4 Visual
Format profile : Simple@L3
Format settings, BVOP : Yes
Format settings, QPel : No
Format settings, GMC : No warppoints
Format settings, Matrix : Default (H.263)
Muxing mode : Packed bitstream
Codec ID : XVID
Codec ID/Hint : XviD
Duration : 25mn 40s
Bit rate : 1 989 Kbps
Width : 680 pixels
Height : 510 pixels
Display aspect ratio : 4:3
Frame rate : 25.000 fps
Resolution : 24 bits
Colorimetry : 4:2:0
Scan type : Progressive
Bits/(Pixel*Frame) : 0.229
Stream size : 365 MiB (88%)
Writing library : XviD 1.1.0 Beta2 (UTC 2005-04-04)
Audio #1
ID : 1
Format : AC-3
Format/Info : Audio Coding 3
Codec ID : 2000
Duration : 25mn 40s
Bit rate mode : Constant
Bit rate : 256 Kbps
Channel(s) : 2 channels
Channel positions : L R
Sampling rate : 48.0 KHz
Stream size : 47.0 MiB (11%)
Alignment : Aligned on interleaves
Interleave, duration : 40 ms (1.00 video frame)
Interleave, preload duration : 512 ms
Жанр: Комедийный сериал

Продолжительность: 00:26:00
Видеокодек: Xvid
Битрейт видео: ~1987kb/s
Размер кадра: 680X510
Качество видео: DVDRip
Аудиокодек: AC3
Битрейт аудио: 256kb/s.
General

Format : AVI
Format/Info : Audio Video Interleave
File size : 420 MiB
Duration : 26mn 0s
Overall bit rate : 2 260 Kbps
Writing library : VirtualDub-MPEG2 build 24528/release
Video #0
ID : 0
Format : MPEG-4 Visual
Format profile : Simple@L3
Format settings, BVOP : Yes
Format settings, QPel : No
Format settings, GMC : No warppoints
Format settings, Matrix : Default (H.263)
Muxing mode : Packed bitstream
Codec ID : XVID
Codec ID/Hint : XviD
Duration : 26mn 0s
Bit rate : 1 994 Kbps
Width : 680 pixels
Height : 510 pixels
Display aspect ratio : 4:3
Frame rate : 25.000 fps
Resolution : 24 bits
Colorimetry : 4:2:0
Scan type : Progressive
Bits/(Pixel*Frame) : 0.230
Stream size : 371 MiB (88%)
Writing library : XviD 1.1.0 Beta2 (UTC 2005-04-04)
Audio #1
ID : 1
Format : AC-3
Format/Info : Audio Coding 3
Codec ID : 2000
Duration : 26mn 0s
Bit rate mode : Constant
Bit rate : 256 Kbps
Channel(s) : 2 channels
Channel positions : L R
Sampling rate : 48.0 KHz
Stream size : 47.6 MiB (11%)
Alignment : Aligned on interleaves
Interleave, duration : 40 ms (1.00 video frame)
Interleave, preload duration : 512 ms
Жанр: Комедийный сериал

Продолжительность: 00:25:54
Видеокодек: Xvid
Битрейт видео: ~1987kb/s
Размер кадра: 680X510
Качество видео: DVDRip
Аудиокодек: AC3
Битрейт аудио: 256kb/s.
General
Format : AVI
Format/Info : Audio Video Interleave
File size : 419 MiB
Duration : 25mn 54s
Overall bit rate : 2 259 Kbps
Writing library : VirtualDub-MPEG2 build 24528/release
Video #0
ID : 0
Format : MPEG-4 Visual
Format profile : Simple@L3
Format settings, BVOP : Yes
Format settings, QPel : No
Format settings, GMC : No warppoints
Format settings, Matrix : Default (H.263)
Muxing mode : Packed bitstream
Codec ID : XVID
Codec ID/Hint : XviD
Duration : 25mn 54s
Bit rate : 1 993 Kbps
Width : 680 pixels
Height : 510 pixels
Display aspect ratio : 4:3
Frame rate : 25.000 fps
Resolution : 24 bits
Colorimetry : 4:2:0
Scan type : Progressive
Bits/(Pixel*Frame) : 0.230
Stream size : 369 MiB (88%)
Writing library : XviD 1.1.0 Beta2 (UTC 2005-04-04)
Audio #1
ID : 1
Format : AC-3
Format/Info : Audio Coding 3
Codec ID : 2000
Duration : 25mn 54s
Bit rate mode : Constant
Bit rate : 256 Kbps
Channel(s) : 2 channels
Channel positions : L R
Sampling rate : 48.0 KHz
Stream size : 47.4 MiB (11%)
Alignment : Aligned on interleaves
Interleave, duration : 40 ms (1.00 video frame)
Interleave, preload duration : 512 ms
Жанр: Комедийный сериал

Продолжительность: 00:23:14
Видеокодек: Xvid
Битрейт видео: ~1987kb/s
Размер кадра: 680X510
Качество видео: DVDRip
Аудиокодек: AC3
Битрейт аудио: 256kb/s.
General

Format : AVI
Format/Info : Audio Video Interleave
File size : 376 MiB
Duration : 23mn 14s
Overall bit rate : 2 262 Kbps
Writing library : VirtualDub-MPEG2 build 24528/release
Video #0
ID : 0
Format : MPEG-4 Visual
Format profile : Simple@L3
Format settings, BVOP : Yes
Format settings, QPel : No
Format settings, GMC : No warppoints
Format settings, Matrix : Default (H.263)
Muxing mode : Packed bitstream
Codec ID : XVID
Codec ID/Hint : XviD
Duration : 23mn 14s
Bit rate : 1 996 Kbps
Width : 680 pixels
Height : 510 pixels
Display aspect ratio : 4:3
Frame rate : 25.000 fps
Resolution : 24 bits
Colorimetry : 4:2:0
Scan type : Progressive
Bits/(Pixel*Frame) : 0.230
Stream size : 332 MiB (88%)
Writing library : XviD 1.1.0 Beta2 (UTC 2005-04-04)
Audio #1
ID : 1
Format : AC-3
Format/Info : Audio Coding 3
Codec ID : 2000
Duration : 23mn 14s
Bit rate mode : Constant
Bit rate : 256 Kbps
Channel(s) : 2 channels
Channel positions : L R
Sampling rate : 48.0 KHz
Stream size : 42.6 MiB (11%)
Alignment : Aligned on interleaves
Interleave, duration : 40 ms (1.00 video frame)
Interleave, preload duration : 512 ms
Жанр: Комедийный сериал

Продолжительность: 00:24:42
Видеокодек: Xvid
Битрейт видео: ~1987kb/s
Размер кадра: 680X510
Качество видео: DVDRip
Аудиокодек: AC3
Битрейт аудио: 256kb/s.
Format : AVI
Format/Info : Audio Video Interleave
File size : 400 MiB
Duration : 24mn 42s
Overall bit rate : 2 261 Kbps
Writing library : VirtualDub-MPEG2 build 24528/release
Video #0
ID : 0
Format : MPEG-4 Visual
Format profile : Simple@L3
Format settings, BVOP : Yes
Format settings, QPel : No
Format settings, GMC : No warppoints
Format settings, Matrix : Default (H.263)
Muxing mode : Packed bitstream
Codec ID : XVID
Codec ID/Hint : XviD
Duration : 24mn 42s
Bit rate : 1 996 Kbps
Width : 680 pixels
Height : 510 pixels
Display aspect ratio : 4:3
Frame rate : 25.000 fps
Resolution : 24 bits
Colorimetry : 4:2:0
Scan type : Progressive
Bits/(Pixel*Frame) : 0.230
Stream size : 353 MiB (88%)
Writing library : XviD 1.1.0 Beta2 (UTC 2005-04-04)
Audio #1
ID : 1
Format : AC-3
Format/Info : Audio Coding 3
Codec ID : 2000
Duration : 24mn 42s
Bit rate mode : Constant
Bit rate : 256 Kbps
Channel(s) : 2 channels
Channel positions : L R
Sampling rate : 48.0 KHz
Stream size : 45.2 MiB (11%)
Alignment : Aligned on interleaves
Interleave, duration : 40 ms (1.00 video frame)
Interleave, preload duration : 512 ms
Жанр: Комедийный сериал

Продолжительность: 00:25:21
Видеокодек: Xvid
Битрейт видео: ~1987kb/s
Размер кадра: 680X510
Качество видео: DVDRip
Аудиокодек: AC3
Битрейт аудио: 256kb/s.
Format : AVI
Format/Info : Audio Video Interleave
File size : 410 MiB
Duration : 25mn 21s
Overall bit rate : 2 259 Kbps
Writing library : VirtualDub-MPEG2 build 24528/release
Video #0
ID : 0
Format : MPEG-4 Visual
Format profile : Simple@L3
Format settings, BVOP : Yes
Format settings, QPel : No
Format settings, GMC : No warppoints
Format settings, Matrix : Default (H.263)
Muxing mode : Packed bitstream
Codec ID : XVID
Codec ID/Hint : XviD
Duration : 25mn 21s
Bit rate : 1 993 Kbps
Width : 568 pixels
Height : 426 pixels
Display aspect ratio : 4:3
Frame rate : 25.000 fps
Resolution : 24 bits
Colorimetry : 4:2:0
Scan type : Progressive
Bits/(Pixel*Frame) : 0.329
Stream size : 361 MiB (88%)
Writing library : XviD 1.1.0 Beta2 (UTC 2005-04-04)
Audio #1
ID : 1
Format : AC-3
Format/Info : Audio Coding 3
Codec ID : 2000
Duration : 25mn 20s
Bit rate mode : Constant
Bit rate : 256 Kbps
Channel(s) : 2 channels
Channel positions : L R
Sampling rate : 48.0 KHz
Stream size : 46.4 MiB (11%)
Alignment : Aligned on interleaves
Interleave, duration : 40 ms (1.00 video frame)
Interleave, preload duration : 512 ms
Жанр: Комедийный сериал

Продолжительность: 00:25:15
Видеокодек: Xvid
Битрейт видео: ~1987kb/s
Размер кадра: 680X510
Качество видео: DVDRip
Аудиокодек: AC3
Битрейт аудио: 256kb/s.
Format : AVI
Format/Info : Audio Video Interleave
File size : 409 MiB
Duration : 25mn 15s
Overall bit rate : 2 262 Kbps
Writing library : VirtualDub-MPEG2 build 24528/release
Video #0
ID : 0
Format : MPEG-4 Visual
Format profile : Simple@L3
Format settings, BVOP : Yes
Format settings, QPel : No
Format settings, GMC : No warppoints
Format settings, Matrix : Default (H.263)
Muxing mode : Packed bitstream
Codec ID : XVID
Codec ID/Hint : XviD
Duration : 25mn 15s
Bit rate : 1 996 Kbps
Width : 568 pixels
Height : 426 pixels
Display aspect ratio : 4:3
Frame rate : 25.000 fps
Resolution : 24 bits
Colorimetry : 4:2:0
Scan type : Progressive
Bits/(Pixel*Frame) : 0.330
Stream size : 361 MiB (88%)
Writing library : XviD 1.1.0 Beta2 (UTC 2005-04-04)
Audio #1
ID : 1
Format : AC-3
Format/Info : Audio Coding 3
Codec ID : 2000
Duration : 25mn 15s
Bit rate mode : Constant
Bit rate : 256 Kbps
Channel(s) : 2 channels
Channel positions : L R
Sampling rate : 48.0 KHz
Stream size : 46.2 MiB (11%)
Alignment : Aligned on interleaves
Interleave, duration : 40 ms (1.00 video frame)
Interleave, preload duration : 512 ms
Жанр: Комедийный сериал

Продолжительность: 00:20:57
Видеокодек: Xvid
Битрейт видео: ~1987kb/s
Размер кадра: 680X510
Качество видео: DVDRip
Аудиокодек: AC3
Битрейт аудио: 256kb/s.
Format : AVI
Format/Info : Audio Video Interleave
File size : 338 MiB
Duration : 20mn 57s
Overall bit rate : 2 252 Kbps
Writing library : VirtualDub-MPEG2 build 24528/release
Video #0
ID : 0
Format : MPEG-4 Visual
Format profile : Simple@L3
Format settings, BVOP : Yes
Format settings, QPel : No
Format settings, GMC : No warppoints
Format settings, Matrix : Default (H.263)
Muxing mode : Packed bitstream
Codec ID : XVID
Codec ID/Hint : XviD
Duration : 20mn 57s
Bit rate : 1 986 Kbps
Width : 568 pixels
Height : 426 pixels
Display aspect ratio : 4:3
Frame rate : 25.000 fps
Resolution : 24 bits
Colorimetry : 4:2:0
Scan type : Progressive
Bits/(Pixel*Frame) : 0.328
Stream size : 298 MiB (88%)
Writing library : XviD 1.1.0 Beta2 (UTC 2005-04-04)
Audio #1
ID : 1
Format : AC-3
Format/Info : Audio Coding 3
Codec ID : 2000
Duration : 20mn 57s
Bit rate mode : Constant
Bit rate : 256 Kbps
Channel(s) : 2 channels
Channel positions : L R
Sampling rate : 48.0 KHz
Stream size : 38.4 MiB (11%)
Alignment : Aligned on interleaves
Interleave, duration : 40 ms (1.00 video frame)
Interleave, preload duration : 512 ms
Жанр: Комедийный сериал

Продолжительность: 00:20:01
Видеокодек: Xvid
Битрейт видео: ~1987kb/s
Размер кадра: 680X510
Качество видео: DVDRip
Аудиокодек: AC3
Битрейт аудио: 256kb/s.
Format : AVI
Format/Info : Audio Video Interleave
File size : 323 MiB
Duration : 20mn 1s
Overall bit rate : 2 254 Kbps
Writing library : VirtualDub-MPEG2 build 24528/release
Video #0
ID : 0
Format : MPEG-4 Visual
Format profile : Simple@L3
Format settings, BVOP : Yes
Format settings, QPel : No
Format settings, GMC : No warppoints
Format settings, Matrix : Default (H.263)
Muxing mode : Packed bitstream
Codec ID : XVID
Codec ID/Hint : XviD
Duration : 20mn 1s
Bit rate : 1 988 Kbps
Width : 568 pixels
Height : 426 pixels
Display aspect ratio : 4:3
Frame rate : 25.000 fps
Resolution : 24 bits
Colorimetry : 4:2:0
Scan type : Progressive
Bits/(Pixel*Frame) : 0.329
Stream size : 285 MiB (88%)
Writing library : XviD 1.1.0 Beta2 (UTC 2005-04-04)
Audio #1
ID : 1
Format : AC-3
Format/Info : Audio Coding 3
Codec ID : 2000
Duration : 20mn 1s
Bit rate mode : Constant
Bit rate : 256 Kbps
Channel(s) : 2 channels
Channel positions : L R
Sampling rate : 48.0 KHz
Stream size : 36.7 MiB (11%)
Alignment : Aligned on interleaves
Interleave, duration : 40 ms (1.00 video frame)
Interleave, preload duration : 512 ms
Жанр: Комедийный сериал

Продолжительность: 00:31:24
Видеокодек: Xvid
Битрейт видео: ~1987kb/s
Размер кадра: 680X510
Качество видео: DVDRip
Аудиокодек: AC3
Битрейт аудио: 256kb/s.
Format : AVI
Format/Info : Audio Video Interleave
File size : 507 MiB
Duration : 31mn 24s
Overall bit rate : 2 259 Kbps
Writing library : VirtualDub-MPEG2 build 24528/release
Video #0
ID : 0
Format : MPEG-4 Visual
Format profile : Simple@L3
Format settings, BVOP : Yes
Format settings, QPel : No
Format settings, GMC : No warppoints
Format settings, Matrix : Default (H.263)
Muxing mode : Packed bitstream
Codec ID : XVID
Codec ID/Hint : XviD
Duration : 31mn 24s
Bit rate : 1 993 Kbps
Width : 568 pixels
Height : 426 pixels
Display aspect ratio : 4:3
Frame rate : 25.000 fps
Resolution : 24 bits
Colorimetry : 4:2:0
Scan type : Progressive
Bits/(Pixel*Frame) : 0.329
Stream size : 448 MiB (88%)
Writing library : XviD 1.1.0 Beta2 (UTC 2005-04-04)
Audio #1
ID : 1
Format : AC-3
Format/Info : Audio Coding 3
Codec ID : 2000
Duration : 31mn 24s
Bit rate mode : Constant
Bit rate : 256 Kbps
Channel(s) : 2 channels
Channel positions : L R
Sampling rate : 48.0 KHz
Stream size : 57.5 MiB (11%)
Alignment : Aligned on interleaves
Interleave, duration : 40 ms (1.00 video frame)
Interleave, preload duration : 512 ms
Жанр: Комедийный сериал

Продолжительность: 00:25:42
Видеокодек: Xvid
Битрейт видео: ~1987kb/s
Размер кадра: 680X510
Качество видео: DVDRip
Аудиокодек: AC3
Битрейт аудио: 256kb/s.
Format : AVI
Format/Info : Audio Video Interleave
File size : 414 MiB
Duration : 25mn 42s
Overall bit rate : 2 250 Kbps
Writing library : VirtualDub-MPEG2 build 24528/release
Video #0
ID : 0
Format : MPEG-4 Visual
Format profile : Simple@L3
Format settings, BVOP : Yes
Format settings, QPel : No
Format settings, GMC : No warppoints
Format settings, Matrix : Default (H.263)
Muxing mode : Packed bitstream
Codec ID : XVID
Codec ID/Hint : XviD
Duration : 25mn 42s
Bit rate : 1 984 Kbps
Width : 568 pixels
Height : 426 pixels
Display aspect ratio : 4:3
Frame rate : 25.000 fps
Resolution : 24 bits
Colorimetry : 4:2:0
Scan type : Progressive
Bits/(Pixel*Frame) : 0.328
Stream size : 365 MiB (88%)
Writing library : XviD 1.1.0 Beta2 (UTC 2005-04-04)
Audio #1
ID : 1
Format : AC-3
Format/Info : Audio Coding 3
Codec ID : 2000
Duration : 25mn 42s
Bit rate mode : Constant
Bit rate : 256 Kbps
Channel(s) : 2 channels
Channel positions : L R
Sampling rate : 48.0 KHz
Stream size : 47.1 MiB (11%)
Alignment : Aligned on interleaves
Interleave, duration : 40 ms (1.00 video frame)
Interleave, preload duration : 512 ms
Жанр: Комедийный сериал

Продолжительность: 00:25:54
Видеокодек: Xvid
Битрейт видео: ~1987kb/s
Размер кадра: 680X510
Качество видео: DVDRip
Аудиокодек: AC3
Битрейт аудио: 256kb/s.
Format : AVI
Format/Info : Audio Video Interleave
File size : 407 MiB
Duration : 25mn 54s
Overall bit rate : 2 194 Kbps
Writing library : VirtualDub-MPEG2 build 24528/release
Video #0
ID : 0
Format : MPEG-4 Visual
Format profile : Simple@L3
Format settings, BVOP : Yes
Format settings, QPel : No
Format settings, GMC : No warppoints
Format settings, Matrix : Default (H.263)
Muxing mode : Packed bitstream
Codec ID : XVID
Codec ID/Hint : XviD
Duration : 25mn 54s
Bit rate : 1 993 Kbps
Width : 680 pixels
Height : 510 pixels
Display aspect ratio : 4:3
Frame rate : 25.000 fps
Resolution : 24 bits
Colorimetry : 4:2:0
Scan type : Progressive
Bits/(Pixel*Frame) : 0.230
Stream size : 369 MiB (91%)
Writing library : XviD 1.1.0 Beta2 (UTC 2005-04-04)
Audio #1
ID : 1
Format : AC-3
Format/Info : Audio Coding 3
Codec ID : 2000
Duration : 25mn 54s
Bit rate mode : Constant
Bit rate : 192 Kbps
Channel(s) : 2 channels
Channel positions : L R
Sampling rate : 48.0 KHz
Stream size : 35.6 MiB (9%)
Alignment : Aligned on interleaves
Interleave, duration : 40 ms (1.00 video frame)
Interleave, preload duration : 512 ms
Жанр: Комедийный сериал

Продолжительность: 00:26:00
Видеокодек: Xvid
Битрейт видео: ~1987kb/s
Размер кадра: 680X510
Качество видео: DVDRip
Аудиокодек: AC3
Битрейт аудио: 256kb/s.
Format : AVI
Format/Info : Audio Video Interleave
File size : 409 MiB
Duration : 26mn 0s
Overall bit rate : 2 198 Kbps
Writing library : VirtualDub-MPEG2 build 24528/release
Video #0
ID : 0
Format : MPEG-4 Visual
Format profile : Simple@L3
Format settings, BVOP : Yes
Format settings, QPel : No
Format settings, GMC : No warppoints
Format settings, Matrix : Default (H.263)
Muxing mode : Packed bitstream
Codec ID : XVID
Codec ID/Hint : XviD
Duration : 26mn 0s
Bit rate : 1 996 Kbps
Width : 680 pixels
Height : 510 pixels
Display aspect ratio : 4:3
Frame rate : 25.000 fps
Resolution : 24 bits
Colorimetry : 4:2:0
Scan type : Progressive
Bits/(Pixel*Frame) : 0.230
Stream size : 371 MiB (91%)
Writing library : XviD 1.1.0 Beta2 (UTC 2005-04-04)
Audio #1
ID : 1
Format : AC-3
Format/Info : Audio Coding 3
Codec ID : 2000
Duration : 26mn 0s
Bit rate mode : Constant
Bit rate : 192 Kbps
Channel(s) : 2 channels
Channel positions : L R
Sampling rate : 48.0 KHz
Stream size : 35.7 MiB (9%)
Alignment : Aligned on interleaves
Interleave, duration : 40 ms (1.00 video frame)
Interleave, preload duration : 512 ms
Жанр: Комедийный сериал

Продолжительность: 00:19:55
Видеокодек: Xvid
Битрейт видео: ~1987kb/s
Размер кадра: 680X510
Качество видео: DVDRip
Аудиокодек: AC3
Битрейт аудио: 256kb/s.
Format : AVI
Format/Info : Audio Video Interleave
File size : 312 MiB
Duration : 19mn 55s
Overall bit rate : 2 188 Kbps
Writing library : VirtualDub-MPEG2 build 24528/release
Video #0
ID : 0
Format : MPEG-4 Visual
Format profile : Simple@L3
Format settings, BVOP : Yes
Format settings, QPel : No
Format settings, GMC : No warppoints
Format settings, Matrix : Default (H.263)
Muxing mode : Packed bitstream
Codec ID : XVID
Codec ID/Hint : XviD
Duration : 19mn 55s
Bit rate : 1 986 Kbps
Width : 680 pixels
Height : 510 pixels
Display aspect ratio : 4:3
Frame rate : 25.000 fps
Resolution : 24 bits
Colorimetry : 4:2:0
Scan type : Progressive
Bits/(Pixel*Frame) : 0.229
Stream size : 283 MiB (91%)
Writing library : XviD 1.1.0 Beta2 (UTC 2005-04-04)
Audio #1
ID : 1
Format : AC-3
Format/Info : Audio Coding 3
Codec ID : 2000
Duration : 19mn 55s
Bit rate mode : Constant
Bit rate : 192 Kbps
Channel(s) : 2 channels
Channel positions : L R
Sampling rate : 48.0 KHz
Stream size : 27.4 MiB (9%)
Alignment : Aligned on interleaves
Interleave, duration : 40 ms (1.00 video frame)
Interleave, preload duration : 512 ms
Жанр: Комедийный сериал

Продолжительность: 00:19:13
Видеокодек: Xvid
Битрейт видео: ~1987kb/s
Размер кадра: 680X510
Качество видео: DVDRip
Аудиокодек: AC3
Битрейт аудио: 256kb/s.
Format : AVI
Format/Info : Audio Video Interleave
File size : 301 MiB
Duration : 19mn 13s
Overall bit rate : 2 188 Kbps
Writing library : VirtualDub-MPEG2 build 24528/release
Video #0
ID : 0
Format : MPEG-4 Visual
Format profile : Simple@L3
Format settings, BVOP : Yes
Format settings, QPel : No
Format settings, GMC : No warppoints
Format settings, Matrix : Default (H.263)
Muxing mode : Packed bitstream
Codec ID : XVID
Codec ID/Hint : XviD
Duration : 19mn 13s
Bit rate : 1 987 Kbps
Width : 680 pixels
Height : 510 pixels
Display aspect ratio : 4:3
Frame rate : 25.000 fps
Resolution : 24 bits
Colorimetry : 4:2:0
Scan type : Progressive
Bits/(Pixel*Frame) : 0.229
Stream size : 273 MiB (91%)
Writing library : XviD 1.1.0 Beta2 (UTC 2005-04-04)
Audio #1
ID : 1
Format : AC-3
Format/Info : Audio Coding 3
Codec ID : 2000
Duration : 19mn 13s
Bit rate mode : Constant
Bit rate : 192 Kbps
Channel(s) : 2 channels
Channel positions : L R
Sampling rate : 48.0 KHz
Stream size : 26.4 MiB (9%)
Alignment : Aligned on interleaves
Interleave, duration : 40 ms (1.00 video frame)
Interleave, preload duration : 512 ms
Жанр: Комедийный сериал

Продолжительность: 00:25:26
Видеокодек: Xvid
Битрейт видео: ~1987kb/s
Размер кадра: 680X510
Качество видео: DVDRip
Аудиокодек: AC3
Битрейт аудио: 256kb/s.
Format : AVI
Format/Info : Audio Video Interleave
File size : 399 MiB
Duration : 25mn 26s
Overall bit rate : 2 195 Kbps
Writing library : VirtualDub-MPEG2 build 24528/release
Video #0
ID : 0
Format : MPEG-4 Visual
Format profile : Simple@L3
Format settings, BVOP : Yes
Format settings, QPel : No
Format settings, GMC : No warppoints
Format settings, Matrix : Default (H.263)
Muxing mode : Packed bitstream
Codec ID : XVID
Codec ID/Hint : XviD
Duration : 25mn 26s
Bit rate : 1 993 Kbps
Width : 680 pixels
Height : 510 pixels
Display aspect ratio : 4:3
Frame rate : 25.000 fps
Resolution : 24 bits
Colorimetry : 4:2:0
Scan type : Progressive
Bits/(Pixel*Frame) : 0.230
Stream size : 363 MiB (91%)
Writing library : XviD 1.1.0 Beta2 (UTC 2005-04-04)
Audio #1
ID : 1
Format : AC-3
Format/Info : Audio Coding 3
Codec ID : 2000
Duration : 25mn 26s
Bit rate mode : Constant
Bit rate : 192 Kbps
Channel(s) : 2 channels
Channel positions : L R
Sampling rate : 48.0 KHz
Stream size : 34.9 MiB (9%)
Alignment : Aligned on interleaves
Interleave, duration : 40 ms (1.00 video frame)
Interleave, preload duration : 512 ms
Жанр: Комедийный сериал

Продолжительность: 00:26:02
Видеокодек: Xvid
Битрейт видео: ~1987kb/s
Размер кадра: 680X510
Качество видео: DVDRip
Аудиокодек: AC3
Битрейт аудио: 256kb/s.
Format : AVI
Format/Info : Audio Video Interleave
File size : 406 MiB
Duration : 26mn 2s
Overall bit rate : 2 179 Kbps
Writing library : VirtualDub-MPEG2 build 24528/release
Video #0
ID : 0
Format : MPEG-4 Visual
Format profile : Simple@L3
Format settings, BVOP : Yes
Format settings, QPel : No
Format settings, GMC : No warppoints
Format settings, Matrix : Default (H.263)
Muxing mode : Packed bitstream
Codec ID : XVID
Codec ID/Hint : XviD
Duration : 26mn 2s
Bit rate : 1 977 Kbps
Width : 680 pixels
Height : 510 pixels
Display aspect ratio : 4:3
Frame rate : 25.000 fps
Resolution : 24 bits
Colorimetry : 4:2:0
Scan type : Progressive
Bits/(Pixel*Frame) : 0.228
Stream size : 368 MiB (91%)
Writing library : XviD 1.1.0 Beta2 (UTC 2005-04-04)
Audio #1
ID : 1
Format : AC-3
Format/Info : Audio Coding 3
Codec ID : 2000
Duration : 26mn 2s
Bit rate mode : Constant
Bit rate : 192 Kbps
Channel(s) : 2 channels
Channel positions : L R
Sampling rate : 48.0 KHz
Stream size : 35.8 MiB (9%)
Alignment : Aligned on interleaves
Interleave, duration : 40 ms (1.00 video frame)
Interleave, preload duration : 512 ms
Жанр: Комедийный сериал

Продолжительность: 00:38:49
Видеокодек: Xvid
Битрейт видео: ~1987kb/s
Размер кадра: 680X510
Качество видео: DVDRip
Аудиокодек: AC3
Битрейт аудио: 256kb/s. Кажись обе серии в одном фильме.
Format : AVI
Format/Info : Audio Video Interleave
File size : 611 MiB
Duration : 38mn 49s
Overall bit rate : 2 201 Kbps
Writing library : VirtualDub-MPEG2 build 24528/release
Video #0
ID : 0
Format : MPEG-4 Visual
Format profile : Simple@L3
Format settings, BVOP : Yes
Format settings, QPel : No
Format settings, GMC : No warppoints
Format settings, Matrix : Default (H.263)
Muxing mode : Packed bitstream
Codec ID : XVID
Codec ID/Hint : XviD
Duration : 38mn 49s
Bit rate : 1 999 Kbps
Width : 680 pixels
Height : 510 pixels
Display aspect ratio : 4:3
Frame rate : 25.000 fps
Resolution : 24 bits
Colorimetry : 4:2:0
Scan type : Progressive
Bits/(Pixel*Frame) : 0.231
Stream size : 555 MiB (91%)
Writing library : XviD 1.1.0 Beta2 (UTC 2005-04-04)
Audio #1
ID : 1
Format : AC-3
Format/Info : Audio Coding 3
Codec ID : 2000
Duration : 38mn 49s
Bit rate mode : Constant
Bit rate : 192 Kbps
Channel(s) : 2 channels
Channel positions : L R
Sampling rate : 48.0 KHz
Stream size : 53.3 MiB (9%)
Alignment : Aligned on interleaves
Interleave, duration : 40 ms (1.00 video frame)
Interleave, preload duration : 512 ms
Жанр: Комедийный сериал

Продолжительность: 00:25:57
Видеокодек: Xvid
Битрейт видео: ~1987kb/s
Размер кадра: 680X510
Качество видео: DVDRip
Аудиокодек: AC3
Битрейт аудио: 256kb/s.
Format : AVI
Format/Info : Audio Video Interleave
File size : 407 MiB
Duration : 25mn 57s
Overall bit rate : 2 192 Kbps
Writing library : VirtualDub-MPEG2 build 24528/release
Video #0
ID : 0
Format : MPEG-4 Visual
Format profile : Simple@L3
Format settings, BVOP : Yes
Format settings, QPel : No
Format settings, GMC : No warppoints
Format settings, Matrix : Default (H.263)
Muxing mode : Packed bitstream
Codec ID : XVID
Codec ID/Hint : XviD
Duration : 25mn 57s
Bit rate : 1 990 Kbps
Width : 680 pixels
Height : 510 pixels
Display aspect ratio : 4:3
Frame rate : 25.000 fps
Resolution : 24 bits
Colorimetry : 4:2:0
Scan type : Progressive
Bits/(Pixel*Frame) : 0.230
Stream size : 370 MiB (91%)
Writing library : XviD 1.1.0 Beta2 (UTC 2005-04-04)
Audio #1
ID : 1
Format : AC-3
Format/Info : Audio Coding 3
Codec ID : 2000
Duration : 25mn 57s
Bit rate mode : Constant
Bit rate : 192 Kbps
Channel(s) : 2 channels
Channel positions : L R
Sampling rate : 48.0 KHz
Stream size : 35.7 MiB (9%)
Alignment : Aligned on interleaves
Interleave, duration : 40 ms (1.00 video frame)
Interleave, preload duration : 512 ms
Жанр: Комедийный сериал

Продолжительность: 00:25:54
Видеокодек: Xvid
Битрейт видео: ~1987kb/s
Размер кадра: 680X510
Качество видео: DVDRip
Аудиокодек: AC3
Битрейт аудио: 256kb/s.
Format : AVI
Format/Info : Audio Video Interleave
File size : 406 MiB
Duration : 25mn 54s
Overall bit rate : 2 191 Kbps
Writing library : VirtualDub-MPEG2 build 24528/release
Video #0
ID : 0
Format : MPEG-4 Visual
Format profile : Simple@L3
Format settings, BVOP : Yes
Format settings, QPel : No
Format settings, GMC : No warppoints
Format settings, Matrix : Default (H.263)
Muxing mode : Packed bitstream
Codec ID : XVID
Codec ID/Hint : XviD
Duration : 25mn 54s
Bit rate : 1 989 Kbps
Width : 680 pixels
Height : 510 pixels
Display aspect ratio : 4:3
Frame rate : 25.000 fps
Resolution : 24 bits
Colorimetry : 4:2:0
Scan type : Progressive
Bits/(Pixel*Frame) : 0.229
Stream size : 369 MiB (91%)
Writing library : XviD 1.1.0 Beta2 (UTC 2005-04-04)
Audio #1
ID : 1
Format : AC-3
Format/Info : Audio Coding 3
Codec ID : 2000
Duration : 25mn 54s
Bit rate mode : Constant
Bit rate : 192 Kbps
Channel(s) : 2 channels
Channel positions : L R
Sampling rate : 48.0 KHz
Stream size : 35.6 MiB (9%)
Alignment : Aligned on interleaves
Interleave, duration : 40 ms (1.00 video frame)
Interleave, preload duration : 512 ms
Жанр: Комедийный сериал

Продолжительность: 00:23:55
Видеокодек: Xvid
Битрейт видео: ~1987kb/s
Размер кадра: 680X510
Качество видео: DVDRip
Аудиокодек: AC3
Битрейт аудио: 256kb/s.
Format : AVI
Format/Info : Audio Video Interleave
File size : 376 MiB
Duration : 23mn 55s
Overall bit rate : 2 199 Kbps
Writing library : VirtualDub-MPEG2 build 24528/release
Video #0
ID : 0
Format : MPEG-4 Visual
Format profile : Simple@L3
Format settings, BVOP : Yes
Format settings, QPel : No
Format settings, GMC : No warppoints
Format settings, Matrix : Default (H.263)
Muxing mode : Packed bitstream
Codec ID : XVID
Codec ID/Hint : XviD
Duration : 23mn 55s
Bit rate : 1 998 Kbps
Width : 680 pixels
Height : 510 pixels
Display aspect ratio : 4:3
Frame rate : 25.000 fps
Resolution : 24 bits
Colorimetry : 4:2:0
Scan type : Progressive
Bits/(Pixel*Frame) : 0.230
Stream size : 342 MiB (91%)
Writing library : XviD 1.1.0 Beta2 (UTC 2005-04-04)
Audio #1
ID : 1
Format : AC-3
Format/Info : Audio Coding 3
Codec ID : 2000
Duration : 23mn 55s
Bit rate mode : Constant
Bit rate : 192 Kbps
Channel(s) : 2 channels
Channel positions : L R
Sampling rate : 48.0 KHz
Stream size : 32.9 MiB (9%)
Alignment : Aligned on interleaves
Interleave, duration : 40 ms (1.00 video frame)
Interleave, preload duration : 512 ms
Жанр: Комедийный сериал

Продолжительность: 00:25:42
Видеокодек: Xvid
Битрейт видео: ~1987kb/s
Размер кадра: 680X510
Качество видео: DVDRip
Аудиокодек: AC3
Битрейт аудио: 256kb/s.
Format : AVI
Format/Info : Audio Video Interleave
File size : 403 MiB
Duration : 25mn 42s
Overall bit rate : 2 190 Kbps
Writing library : VirtualDub-MPEG2 build 24528/release
Video #0
ID : 0
Format : MPEG-4 Visual
Format profile : Simple@L3
Format settings, BVOP : Yes
Format settings, QPel : No
Format settings, GMC : No warppoints
Format settings, Matrix : Default (H.263)
Muxing mode : Packed bitstream
Codec ID : XVID
Codec ID/Hint : XviD
Duration : 25mn 42s
Bit rate : 1 988 Kbps
Width : 680 pixels
Height : 510 pixels
Display aspect ratio : 4:3
Frame rate : 25.000 fps
Resolution : 24 bits
Colorimetry : 4:2:0
Scan type : Progressive
Bits/(Pixel*Frame) : 0.229
Stream size : 365 MiB (91%)
Writing library : XviD 1.1.0 Beta2 (UTC 2005-04-04)
Audio #1
ID : 1
Format : AC-3
Format/Info : Audio Coding 3
Codec ID : 2000
Duration : 25mn 42s
Bit rate mode : Constant
Bit rate : 192 Kbps
Channel(s) : 2 channels
Channel positions : L R
Sampling rate : 48.0 KHz
Stream size : 35.3 MiB (9%)
Alignment : Aligned on interleaves
Interleave, duration : 40 ms (1.00 video frame)
Interleave, preload duration : 512 ms
Жанр: Комедийный сериал

Продолжительность: 00:26:02
Видеокодек: Xvid
Битрейт видео: ~1987kb/s
Размер кадра: 680X510
Качество видео: DVDRip
Аудиокодек: AC3
Битрейт аудио: 256kb/s.
Format : AVI
Format/Info : Audio Video Interleave
File size : 407 MiB
Duration : 26mn 2s
Overall bit rate : 2 187 Kbps
Writing library : VirtualDub-MPEG2 build 24528/release
Video #0
ID : 0
Format : MPEG-4 Visual
Format profile : Simple@L3
Format settings, BVOP : Yes
Format settings, QPel : No
Format settings, GMC : No warppoints
Format settings, Matrix : Default (H.263)
Muxing mode : Packed bitstream
Codec ID : XVID
Codec ID/Hint : XviD
Duration : 26mn 2s
Bit rate : 1 985 Kbps
Width : 680 pixels
Height : 510 pixels
Display aspect ratio : 4:3
Frame rate : 25.000 fps
Resolution : 24 bits
Colorimetry : 4:2:0
Scan type : Progressive
Bits/(Pixel*Frame) : 0.229
Stream size : 370 MiB (91%)
Writing library : XviD 1.1.0 Beta2 (UTC 2005-04-04)
Audio #1
ID : 1
Format : AC-3
Format/Info : Audio Coding 3
Codec ID : 2000
Duration : 26mn 2s
Bit rate mode : Constant
Bit rate : 192 Kbps
Channel(s) : 2 channels
Channel positions : L R
Sampling rate : 48.0 KHz
Stream size : 35.8 MiB (9%)
Alignment : Aligned on interleaves
Interleave, duration : 40 ms (1.00 video frame)
Interleave, preload duration : 512 ms
Жанр: Комедийный сериал

Продолжительность: 00:23:03
Видеокодек: Xvid
Битрейт видео: ~1987kb/s
Размер кадра: 680X510
Качество видео: DVDRip
Аудиокодек: AC3
Битрейт аудио: 256kb/s.
Format : AVI
Format/Info : Audio Video Interleave
File size : 362 MiB
Duration : 23mn 3s
Overall bit rate : 2 196 Kbps
Writing library : VirtualDub-MPEG2 build 24528/release
Video #0
ID : 0
Format : MPEG-4 Visual
Format profile : Simple@L3
Format settings, BVOP : Yes
Format settings, QPel : No
Format settings, GMC : No warppoints
Format settings, Matrix : Default (H.263)
Muxing mode : Packed bitstream
Codec ID : XVID
Codec ID/Hint : XviD
Duration : 23mn 3s
Bit rate : 1 995 Kbps
Width : 680 pixels
Height : 510 pixels
Display aspect ratio : 4:3
Frame rate : 25.000 fps
Resolution : 24 bits
Colorimetry : 4:2:0
Scan type : Progressive
Bits/(Pixel*Frame) : 0.230
Stream size : 329 MiB (91%)
Writing library : XviD 1.1.0 Beta2 (UTC 2005-04-04)
Audio #1
ID : 1
Format : AC-3
Format/Info : Audio Coding 3
Codec ID : 2000
Duration : 23mn 3s
Bit rate mode : Constant
Bit rate : 192 Kbps
Channel(s) : 2 channels
Channel positions : L R
Sampling rate : 48.0 KHz
Stream size : 31.7 MiB (9%)
Alignment : Aligned on interleaves
Interleave, duration : 40 ms (1.00 video frame)
Interleave, preload duration : 512 ms
Жанр: Комедийный сериал

Продолжительность: 00:22:39
Видеокодек: Xvid
Битрейт видео: ~1987kb/s
Размер кадра: 680X510
Качество видео: DVDRip
Аудиокодек: AC3
Битрейт аудио: 256kb/s.
Format : AVI
Format/Info : Audio Video Interleave
File size : 356 MiB
Duration : 22mn 39s
Overall bit rate : 2 195 Kbps
Writing library : VirtualDub-MPEG2 build 24528/release
Video #0
ID : 0
Format : MPEG-4 Visual
Format profile : Simple@L3
Format settings, BVOP : Yes
Format settings, QPel : No
Format settings, GMC : No warppoints
Format settings, Matrix : Default (H.263)
Muxing mode : Packed bitstream
Codec ID : XVID
Codec ID/Hint : XviD
Duration : 22mn 39s
Bit rate : 1 993 Kbps
Width : 680 pixels
Height : 510 pixels
Display aspect ratio : 4:3
Frame rate : 25.000 fps
Resolution : 24 bits
Colorimetry : 4:2:0
Scan type : Progressive
Bits/(Pixel*Frame) : 0.230
Stream size : 323 MiB (91%)
Writing library : XviD 1.1.0 Beta2 (UTC 2005-04-04)
Audio #1
ID : 1
Format : AC-3
Format/Info : Audio Coding 3
Codec ID : 2000
Duration : 22mn 39s
Bit rate mode : Constant
Bit rate : 192 Kbps
Channel(s) : 2 channels
Channel positions : L R
Sampling rate : 48.0 KHz
Stream size : 31.1 MiB (9%)
Alignment : Aligned on interleaves
Interleave, duration : 40 ms (1.00 video frame)
Interleave, preload duration : 512 ms
Жанр: Комедийный сериал

Продолжительность: 00:26:22
Видеокодек: Xvid
Битрейт видео: ~1987kb/s
Размер кадра: 680X510
Качество видео: DVDRip
Аудиокодек: AC3
Битрейт аудио: 256kb/s.
Format : AVI
Format/Info : Audio Video Interleave
File size : 412 MiB
Duration : 26mn 22s
Overall bit rate : 2 185 Kbps
Writing library : VirtualDub-MPEG2 build 24528/release
Video #0
ID : 0
Format : MPEG-4 Visual
Format profile : Simple@L3
Format settings, BVOP : Yes
Format settings, QPel : No
Format settings, GMC : No warppoints
Format settings, Matrix : Default (H.263)
Muxing mode : Packed bitstream
Codec ID : XVID
Codec ID/Hint : XviD
Duration : 26mn 22s
Bit rate : 1 984 Kbps
Width : 680 pixels
Height : 510 pixels
Display aspect ratio : 4:3
Frame rate : 25.000 fps
Resolution : 24 bits
Colorimetry : 4:2:0
Scan type : Progressive
Bits/(Pixel*Frame) : 0.229
Stream size : 374 MiB (91%)
Writing library : XviD 1.1.0 Beta2 (UTC 2005-04-04)
Audio #1
ID : 1
Format : AC-3
Format/Info : Audio Coding 3
Codec ID : 2000
Duration : 26mn 22s
Bit rate mode : Constant
Bit rate : 192 Kbps
Channel(s) : 2 channels
Channel positions : L R
Sampling rate : 48.0 KHz
Stream size : 36.2 MiB (9%)
Alignment : Aligned on interleaves
Interleave, duration : 40 ms (1.00 video frame)
Interleave, preload duration : 512 ms
Жанр: Комедийный сериал

Продолжительность: 00:25:01
Видеокодек: Xvid
Битрейт видео: ~1987kb/s
Размер кадра: 680X510
Качество видео: DVDRip
Аудиокодек: AC3
Битрейт аудио: 256kb/s.
Format : AVI
Format/Info : Audio Video Interleave
File size : 393 MiB
Duration : 25mn 1s
Overall bit rate : 2 197 Kbps
Writing library : VirtualDub-MPEG2 build 24528/release
Video #0
ID : 0
Format : MPEG-4 Visual
Format profile : Simple@L3
Format settings, BVOP : Yes
Format settings, QPel : No
Format settings, GMC : No warppoints
Format settings, Matrix : Default (H.263)
Muxing mode : Packed bitstream
Codec ID : XVID
Codec ID/Hint : XviD
Duration : 25mn 1s
Bit rate : 1 995 Kbps
Width : 680 pixels
Height : 510 pixels
Display aspect ratio : 4:3
Frame rate : 25.000 fps
Resolution : 24 bits
Colorimetry : 4:2:0
Scan type : Progressive
Bits/(Pixel*Frame) : 0.230
Stream size : 357 MiB (91%)
Writing library : XviD 1.1.0 Beta2 (UTC 2005-04-04)
Audio #1
ID : 1
Format : AC-3
Format/Info : Audio Coding 3
Codec ID : 2000
Duration : 25mn 1s
Bit rate mode : Constant
Bit rate : 192 Kbps
Channel(s) : 2 channels
Channel positions : L R
Sampling rate : 48.0 KHz
Stream size : 34.4 MiB (9%)
Alignment : Aligned on interleaves
Interleave, duration : 40 ms (1.00 video frame)
Interleave, preload duration : 512 ms
Жанр: Комедийный сериал

Продолжительность: 00:22:56
Видеокодек: Xvid
Битрейт видео: ~1987kb/s
Размер кадра: 680X510
Качество видео: DVDRip
Аудиокодек: AC3
Битрейт аудио: 256kb/s.
Format : AVI
Format/Info : Audio Video Interleave
File size : 360 MiB
Duration : 22mn 56s
Overall bit rate : 2 195 Kbps
Writing library : VirtualDub-MPEG2 build 24528/release
Video #0
ID : 0
Format : MPEG-4 Visual
Format profile : Simple@L3
Format settings, BVOP : Yes
Format settings, QPel : No
Format settings, GMC : No warppoints
Format settings, Matrix : Default (H.263)
Muxing mode : Packed bitstream
Codec ID : XVID
Codec ID/Hint : XviD
Duration : 22mn 56s
Bit rate : 1 993 Kbps
Width : 680 pixels
Height : 510 pixels
Display aspect ratio : 4:3
Frame rate : 25.000 fps
Resolution : 24 bits
Colorimetry : 4:2:0
Scan type : Progressive
Bits/(Pixel*Frame) : 0.230
Stream size : 327 MiB (91%)
Writing library : XviD 1.1.0 Beta2 (UTC 2005-04-04)
Audio #1
ID : 1
Format : AC-3
Format/Info : Audio Coding 3
Codec ID : 2000
Duration : 22mn 56s
Bit rate mode : Constant
Bit rate : 192 Kbps
Channel(s) : 2 channels
Channel positions : L R
Sampling rate : 48.0 KHz
Stream size : 31.5 MiB (9%)
Alignment : Aligned on interleaves
Interleave, duration : 40 ms (1.00 video frame)
Interleave, preload duration : 512 ms
Жанр: Комедийный сериал

Продолжительность: 00:26:02
Видеокодек: Xvid
Битрейт видео: ~1987kb/s
Размер кадра: 680X510
Качество видео: DVDRip
Аудиокодек: AC3
Битрейт аудио: 256kb/s.
Format : AVI
Format/Info : Audio Video Interleave
File size : 409 MiB
Duration : 26mn 2s
Overall bit rate : 2 195 Kbps
Writing library : VirtualDub-MPEG2 build 24528/release
Video #0
ID : 0
Format : MPEG-4 Visual
Format profile : Simple@L3
Format settings, BVOP : Yes
Format settings, QPel : No
Format settings, GMC : No warppoints
Format settings, Matrix : Default (H.263)
Muxing mode : Packed bitstream
Codec ID : XVID
Codec ID/Hint : XviD
Duration : 26mn 2s
Bit rate : 1 993 Kbps
Width : 680 pixels
Height : 510 pixels
Display aspect ratio : 4:3
Frame rate : 25.000 fps
Resolution : 24 bits
Colorimetry : 4:2:0
Scan type : Progressive
Bits/(Pixel*Frame) : 0.230
Stream size : 371 MiB (91%)
Writing library : XviD 1.1.0 Beta2 (UTC 2005-04-04)
Audio #1
ID : 1
Format : AC-3
Format/Info : Audio Coding 3
Codec ID : 2000
Duration : 26mn 2s
Bit rate mode : Constant
Bit rate : 192 Kbps
Channel(s) : 2 channels
Channel positions : L R
Sampling rate : 48.0 KHz
Stream size : 35.8 MiB (9%)
Alignment : Aligned on interleaves
Interleave, duration : 40 ms (1.00 video frame)
Interleave, preload duration : 512 ms
Жанр: Комедийный сериал

Продолжительность: 00:21:26
Видеокодек: Xvid
Битрейт видео: ~1987kb/s
Размер кадра: 680X510
Качество видео: DVDRip
Аудиокодек: AC3
Битрейт аудио: 256kb/s.
Format : AVI
Format/Info : Audio Video Interleave
File size : 337 MiB
Duration : 21mn 26s
Overall bit rate : 2 196 Kbps
Writing library : VirtualDub-MPEG2 build 24528/release
Video #0
ID : 0
Format : MPEG-4 Visual
Format profile : Simple@L3
Format settings, BVOP : Yes
Format settings, QPel : No
Format settings, GMC : No warppoints
Format settings, Matrix : Default (H.263)
Muxing mode : Packed bitstream
Codec ID : XVID
Codec ID/Hint : XviD
Duration : 21mn 26s
Bit rate : 1 994 Kbps
Width : 680 pixels
Height : 510 pixels
Display aspect ratio : 4:3
Frame rate : 25.000 fps
Resolution : 24 bits
Colorimetry : 4:2:0
Scan type : Progressive
Bits/(Pixel*Frame) : 0.230
Stream size : 306 MiB (91%)
Writing library : XviD 1.1.0 Beta2 (UTC 2005-04-04)
Audio #1
ID : 1
Format : AC-3
Format/Info : Audio Coding 3
Codec ID : 2000
Duration : 21mn 26s
Bit rate mode : Constant
Bit rate : 192 Kbps
Channel(s) : 2 channels
Channel positions : L R
Sampling rate : 48.0 KHz
Stream size : 29.4 MiB (9%)
Alignment : Aligned on interleaves
Interleave, duration : 40 ms (1.00 video frame)
Interleave, preload duration : 512 ms
Жанр: Комедийный сериал

Продолжительность: 00:37:47
Видеокодек: Xvid
Битрейт видео: ~1987kb/s
Размер кадра: 680X510
Качество видео: DVDRip
Аудиокодек: AC3
Битрейт аудио: 256kb/s.
Format : AVI
Format/Info : Audio Video Interleave
File size : 593 MiB
Duration : 37mn 47s
Overall bit rate : 2 193 Kbps
Writing library : VirtualDub-MPEG2 build 24528/release
Video #0
ID : 0
Format : MPEG-4 Visual
Format profile : Simple@L3
Format settings, BVOP : Yes
Format settings, QPel : No
Format settings, GMC : No warppoints
Format settings, Matrix : Default (H.263)
Muxing mode : Packed bitstream
Codec ID : XVID
Codec ID/Hint : XviD
Duration : 37mn 47s
Bit rate : 1 991 Kbps
Width : 680 pixels
Height : 510 pixels
Display aspect ratio : 4:3
Frame rate : 25.000 fps
Resolution : 24 bits
Colorimetry : 4:2:0
Scan type : Progressive
Bits/(Pixel*Frame) : 0.230
Stream size : 538 MiB (91%)
Writing library : XviD 1.1.0 Beta2 (UTC 2005-04-04)
Audio #1
ID : 1
Format : AC-3
Format/Info : Audio Coding 3
Codec ID : 2000
Duration : 37mn 47s
Bit rate mode : Constant
Bit rate : 192 Kbps
Channel(s) : 2 channels
Channel positions : L R
Sampling rate : 48.0 KHz
Stream size : 51.9 MiB (9%)
Alignment : Aligned on interleaves
Interleave, duration : 40 ms (1.00 video frame)
Interleave, preload duration : 512 ms
Жанр: Комедийный сериал

Продолжительность: 00:27:58
Видеокодек: Xvid
Битрейт видео: ~1987kb/s
Размер кадра: 680X510
Качество видео: DVDRip
Аудиокодек: AC3
Битрейт аудио: 256kb/s.
Format : AVI
Format/Info : Audio Video Interleave
File size : 440 MiB
Duration : 27mn 58s
Overall bit rate : 2 199 Kbps
Writing library : VirtualDub-MPEG2 build 24528/release
Video #0
ID : 0
Format : MPEG-4 Visual
Format profile : Simple@L3
Format settings, BVOP : Yes
Format settings, QPel : No
Format settings, GMC : No warppoints
Format settings, Matrix : Default (H.263)
Muxing mode : Packed bitstream
Codec ID : XVID
Codec ID/Hint : XviD
Duration : 27mn 58s
Bit rate : 1 997 Kbps
Width : 680 pixels
Height : 510 pixels
Display aspect ratio : 4:3
Frame rate : 25.000 fps
Resolution : 24 bits
Colorimetry : 4:2:0
Scan type : Progressive
Bits/(Pixel*Frame) : 0.230
Stream size : 400 MiB (91%)
Writing library : XviD 1.1.0 Beta2 (UTC 2005-04-04)
Audio #1
ID : 1
Format : AC-3
Format/Info : Audio Coding 3
Codec ID : 2000
Duration : 27mn 58s
Bit rate mode : Constant
Bit rate : 192 Kbps
Channel(s) : 2 channels
Channel positions : L R
Sampling rate : 48.0 KHz
Stream size : 38.4 MiB (9%)
Alignment : Aligned on interleaves
Interleave, duration : 40 ms (1.00 video frame)
Interleave, preload duration : 512 ms
Жанр: Комедийный сериал

Продолжительность: 00:44:31
Видеокодек: Xvid
Битрейт видео: ~1987kb/s
Размер кадра: 680X510
Качество видео: DVDRip
Аудиокодек: AC3
Битрейт аудио: 256kb/s.
General
Format : AVI
Format/Info : Audio Video Interleave
File size : 700 MiB
Duration : 44mn 31s
Overall bit rate : 2 199 Kbps
Writing library : VirtualDub-MPEG2 build 24528/release
Video #0
ID : 0
Format : MPEG-4 Visual
Format profile : Simple@L3
Format settings, BVOP : Yes
Format settings, QPel : No
Format settings, GMC : No warppoints
Format settings, Matrix : Default (H.263)
Muxing mode : Packed bitstream
Codec ID : XVID
Codec ID/Hint : XviD
Duration : 44mn 31s
Bit rate : 1 998 Kbps
Width : 680 pixels
Height : 510 pixels
Display aspect ratio : 4:3
Frame rate : 25.000 fps
Resolution : 24 bits
Colorimetry : 4:2:0
Scan type : Progressive
Bits/(Pixel*Frame) : 0.230
Stream size : 636 MiB (91%)
Writing library : XviD 1.1.0 Beta2 (UTC 2005-04-04)
Audio #1
ID : 1
Format : AC-3
Format/Info : Audio Coding 3
Codec ID : 2000
Duration : 44mn 31s
Bit rate mode : Constant
Bit rate : 192 Kbps
Channel(s) : 2 channels
Channel positions : L R
Sampling rate : 48.0 KHz
Stream size : 61.1 MiB (9%)
Alignment : Aligned on interleaves
Interleave, duration : 40 ms (1.00 video frame)
Interleave, preload duration : 512 ms
Жанр: Комедийный сериал

Продолжительность: 00:20:01
Видеокодек: Xvid
Битрейт видео: ~1987kb/s
Размер кадра: 680X510
Качество видео: DVDRip
Аудиокодек: AC3
Битрейт аудио: 256kb/s.
Format : AVI
Format/Info : Audio Video Interleave
File size : 314 MiB
Duration : 20mn 1s
Overall bit rate : 2 194 Kbps
Writing library : VirtualDub-MPEG2 build 24528/release
Video #0
ID : 0
Format : MPEG-4 Visual
Format profile : Simple@L3
Format settings, BVOP : Yes
Format settings, QPel : No
Format settings, GMC : No warppoints
Format settings, Matrix : Default (H.263)
Muxing mode : Packed bitstream
Codec ID : XVID
Codec ID/Hint : XviD
Duration : 20mn 1s
Bit rate : 1 993 Kbps
Width : 680 pixels
Height : 510 pixels
Display aspect ratio : 4:3
Frame rate : 25.000 fps
Resolution : 24 bits
Colorimetry : 4:2:0
Scan type : Progressive
Bits/(Pixel*Frame) : 0.230
Stream size : 285 MiB (91%)
Writing library : XviD 1.1.0 Beta2 (UTC 2005-04-04)
Audio #1
ID : 1
Format : AC-3
Format/Info : Audio Coding 3
Codec ID : 2000
Duration : 20mn 1s
Bit rate mode : Constant
Bit rate : 192 Kbps
Channel(s) : 2 channels
Channel positions : L R
Sampling rate : 48.0 KHz
Stream size : 27.5 MiB (9%)
Alignment : Aligned on interleaves
Interleave, duration : 40 ms (1.00 video frame)
Interleave, preload duration : 512 ms
Жанр: Комедийный сериал

Продолжительность: 00:20:41
Видеокодек: Xvid
Битрейт видео: ~1987kb/s
Размер кадра: 680X510
Качество видео: DVDRip
Аудиокодек: AC3
Битрейт аудио: 256kb/s.
Format : AVI
Format/Info : Audio Video Interleave
File size : 325 MiB
Duration : 20mn 41s
Overall bit rate : 2 194 Kbps
Writing library : VirtualDub-MPEG2 build 24528/release
Video #0
ID : 0
Format : MPEG-4 Visual
Format profile : Simple@L3
Format settings, BVOP : Yes
Format settings, QPel : No
Format settings, GMC : No warppoints
Format settings, Matrix : Default (H.263)
Muxing mode : Packed bitstream
Codec ID : XVID
Codec ID/Hint : XviD
Duration : 20mn 41s
Bit rate : 1 992 Kbps
Width : 680 pixels
Height : 510 pixels
Display aspect ratio : 4:3
Frame rate : 25.000 fps
Resolution : 24 bits
Colorimetry : 4:2:0
Scan type : Progressive
Bits/(Pixel*Frame) : 0.230
Stream size : 295 MiB (91%)
Writing library : XviD 1.1.0 Beta2 (UTC 2005-04-04)
Audio #1
ID : 1
Format : AC-3
Format/Info : Audio Coding 3
Codec ID : 2000
Duration : 20mn 41s
Bit rate mode : Constant
Bit rate : 192 Kbps
Channel(s) : 2 channels
Channel positions : L R
Sampling rate : 48.0 KHz
Stream size : 28.4 MiB (9%)
Alignment : Aligned on interleaves
Interleave, duration : 40 ms (1.00 video frame)
Interleave, preload duration : 512 ms
Жанр: Комедийный сериал

Продолжительность: 00:21:53
Видеокодек: Xvid
Битрейт видео: ~1987kb/s
Размер кадра: 680X510
Качество видео: DVDRip
Аудиокодек: AC3
Битрейт аудио: 256kb/s.
Format : AVI
Format/Info : Audio Video Interleave
File size : 344 MiB
Duration : 21mn 53s
Overall bit rate : 2 199 Kbps
Writing library : VirtualDub-MPEG2 build 24528/release
Video #0
ID : 0
Format : MPEG-4 Visual
Format profile : Simple@L3
Format settings, BVOP : Yes
Format settings, QPel : No
Format settings, GMC : No warppoints
Format settings, Matrix : Default (H.263)
Muxing mode : Packed bitstream
Codec ID : XVID
Codec ID/Hint : XviD
Duration : 21mn 53s
Bit rate : 1 997 Kbps
Width : 680 pixels
Height : 510 pixels
Display aspect ratio : 4:3
Frame rate : 25.000 fps
Resolution : 24 bits
Colorimetry : 4:2:0
Scan type : Progressive
Bits/(Pixel*Frame) : 0.230
Stream size : 313 MiB (91%)
Writing library : XviD 1.1.0 Beta2 (UTC 2005-04-04)
Audio #1
ID : 1
Format : AC-3
Format/Info : Audio Coding 3
Codec ID : 2000
Duration : 21mn 53s
Bit rate mode : Constant
Bit rate : 192 Kbps
Channel(s) : 2 channels
Channel positions : L R
Sampling rate : 48.0 KHz
Stream size : 30.1 MiB (9%)
Alignment : Aligned on interleaves
Interleave, duration : 40 ms (1.00 video frame)
Interleave, preload duration : 512 ms
Жанр: Комедийный сериал

Продолжительность: 00:26:09
Видеокодек: Xvid
Битрейт видео: ~1987kb/s
Размер кадра: 680X510
Качество видео: DVDRip
Аудиокодек: AC3
Битрейт аудио: 256kb/s.
Format : AVI
Format/Info : Audio Video Interleave
File size : 411 MiB
Duration : 26mn 9s
Overall bit rate : 2 199 Kbps
Writing library : VirtualDub-MPEG2 build 24528/release
Video #0
ID : 0
Format : MPEG-4 Visual
Format profile : Simple@L3
Format settings, BVOP : Yes
Format settings, QPel : No
Format settings, GMC : No warppoints
Format settings, Matrix : Default (H.263)
Muxing mode : Packed bitstream
Codec ID : XVID
Codec ID/Hint : XviD
Duration : 26mn 9s
Bit rate : 1 997 Kbps
Width : 680 pixels
Height : 510 pixels
Display aspect ratio : 4:3
Frame rate : 25.000 fps
Resolution : 24 bits
Colorimetry : 4:2:0
Scan type : Progressive
Bits/(Pixel*Frame) : 0.230
Stream size : 374 MiB (91%)
Writing library : XviD 1.1.0 Beta2 (UTC 2005-04-04)
Audio #1
ID : 1
Format : AC-3
Format/Info : Audio Coding 3
Codec ID : 2000
Duration : 26mn 9s
Bit rate mode : Constant
Bit rate : 192 Kbps
Channel(s) : 2 channels
Channel positions : L R
Sampling rate : 48.0 KHz
Stream size : 35.9 MiB (9%)
Alignment : Aligned on interleaves
Interleave, duration : 40 ms (1.00 video frame)
Interleave, preload duration : 512 ms
Жанр: Комедийный сериал

Продолжительность: 00:23:51
Видеокодек: Xvid
Битрейт видео: ~1987kb/s
Размер кадра: 680X510
Качество видео: DVDRip
Аудиокодек: AC3
Битрейт аудио: 256kb/s.
Format : AVI
Format/Info : Audio Video Interleave
File size : 375 MiB
Duration : 23mn 51s
Overall bit rate : 2 199 Kbps
Writing library : VirtualDub-MPEG2 build 24528/release
Video #0
ID : 0
Format : MPEG-4 Visual
Format profile : Simple@L3
Format settings, BVOP : Yes
Format settings, QPel : No
Format settings, GMC : No warppoints
Format settings, Matrix : Default (H.263)
Muxing mode : Packed bitstream
Codec ID : XVID
Codec ID/Hint : XviD
Duration : 23mn 51s
Bit rate : 1 997 Kbps
Width : 680 pixels
Height : 510 pixels
Display aspect ratio : 4:3
Frame rate : 25.000 fps
Resolution : 24 bits
Colorimetry : 4:2:0
Scan type : Progressive
Bits/(Pixel*Frame) : 0.230
Stream size : 341 MiB (91%)
Writing library : XviD 1.1.0 Beta2 (UTC 2005-04-04)
Audio #1
ID : 1
Format : AC-3
Format/Info : Audio Coding 3
Codec ID : 2000
Duration : 23mn 51s
Bit rate mode : Constant
Bit rate : 192 Kbps
Channel(s) : 2 channels
Channel positions : L R
Sampling rate : 48.0 KHz
Stream size : 32.8 MiB (9%)
Alignment : Aligned on interleaves
Interleave, duration : 40 ms (1.00 video frame)
Interleave, preload duration : 512 ms
Жанр: Комедийный сериал

Продолжительность: 00:26:39
Видеокодек: Xvid
Битрейт видео: ~1987kb/s
Размер кадра: 680X510
Качество видео: DVDRip
Аудиокодек: AC3
Битрейт аудио: 256kb/s.
Format : AVI
Format/Info : Audio Video Interleave
File size : 419 MiB
Duration : 26mn 39s
Overall bit rate : 2 200 Kbps
Writing library : VirtualDub-MPEG2 build 24528/release
Video #0
ID : 0
Format : MPEG-4 Visual
Format profile : Simple@L3
Format settings, BVOP : Yes
Format settings, QPel : No
Format settings, GMC : No warppoints
Format settings, Matrix : Default (H.263)
Muxing mode : Packed bitstream
Codec ID : XVID
Codec ID/Hint : XviD
Duration : 26mn 39s
Bit rate : 1 998 Kbps
Width : 680 pixels
Height : 510 pixels
Display aspect ratio : 4:3
Frame rate : 25.000 fps
Resolution : 24 bits
Colorimetry : 4:2:0
Scan type : Progressive
Bits/(Pixel*Frame) : 0.230
Stream size : 381 MiB (91%)
Writing library : XviD 1.1.0 Beta2 (UTC 2005-04-04)
Audio #1
ID : 1
Format : AC-3
Format/Info : Audio Coding 3
Codec ID : 2000
Duration : 26mn 39s
Bit rate mode : Constant
Bit rate : 192 Kbps
Channel(s) : 2 channels
Channel positions : L R
Sampling rate : 48.0 KHz
Stream size : 36.6 MiB (9%)
Alignment : Aligned on interleaves
Interleave, duration : 40 ms (1.00 video frame)
Interleave, preload duration : 512 ms
Format : AVI
Format/Info : Audio Video Interleave
File size : 393 MiB
Duration : 24mn 59s
Overall bit rate : 2 199 Kbps
Writing library : VirtualDub-MPEG2 build 24528/release
Video #0
ID : 0
Format : MPEG-4 Visual
Format profile : Simple@L3
Format settings, BVOP : Yes
Format settings, QPel : No
Format settings, GMC : No warppoints
Format settings, Matrix : Default (H.263)
Muxing mode : Packed bitstream
Codec ID : XVID
Codec ID/Hint : XviD
Duration : 24mn 59s
Bit rate : 1 998 Kbps
Width : 680 pixels
Height : 510 pixels
Display aspect ratio : 4:3
Frame rate : 25.000 fps
Resolution : 24 bits
Colorimetry : 4:2:0
Scan type : Progressive
Bits/(Pixel*Frame) : 0.230
Stream size : 357 MiB (91%)
Writing library : XviD 1.1.0 Beta2 (UTC 2005-04-04)
Audio #1
ID : 1
Format : AC-3
Format/Info : Audio Coding 3
Codec ID : 2000
Duration : 24mn 59s
Bit rate mode : Constant
Bit rate : 192 Kbps
Channel(s) : 2 channels
Channel positions : L R
Sampling rate : 48.0 KHz
Stream size : 34.3 MiB (9%)
Alignment : Aligned on interleaves
Interleave, duration : 40 ms (1.00 video frame)
Interleave, preload duration : 512 ms
Жанр: Комедийный сериал

Продолжительность: 00:26:46
Видеокодек: Xvid
Битрейт видео: ~1987kb/s
Размер кадра: 680X510
Качество видео: DVDRip
Аудиокодек: AC3
Битрейт аудио: 256kb/s.
Format : AVI
Format/Info : Audio Video Interleave
File size : 421 MiB
Duration : 26mn 46s
Overall bit rate : 2 199 Kbps
Writing library : VirtualDub-MPEG2 build 24528/release
Video #0
ID : 0
Format : MPEG-4 Visual
Format profile : Simple@L3
Format settings, BVOP : Yes
Format settings, QPel : No
Format settings, GMC : No warppoints
Format settings, Matrix : Default (H.263)
Muxing mode : Packed bitstream
Codec ID : XVID
Codec ID/Hint : XviD
Duration : 26mn 46s
Bit rate : 1 998 Kbps
Width : 680 pixels
Height : 510 pixels
Display aspect ratio : 4:3
Frame rate : 25.000 fps
Resolution : 24 bits
Colorimetry : 4:2:0
Scan type : Progressive
Bits/(Pixel*Frame) : 0.230
Stream size : 383 MiB (91%)
Writing library : XviD 1.1.0 Beta2 (UTC 2005-04-04)
Audio #1
ID : 1
Format : AC-3
Format/Info : Audio Coding 3
Codec ID : 2000
Duration : 26mn 46s
Bit rate mode : Constant
Bit rate : 192 Kbps
Channel(s) : 2 channels
Channel positions : L R
Sampling rate : 48.0 KHz
Stream size : 36.8 MiB (9%)
Alignment : Aligned on interleaves
Interleave, duration : 40 ms (1.00 video frame)
Interleave, preload duration : 512 ms
Жанр: Комедийный сериал

Продолжительность: 00:26:46
Видеокодек: Xvid
Битрейт видео: ~1987kb/s
Размер кадра: 680X510
Качество видео: DVDRip
Аудиокодек: AC3
Битрейт аудио: 256kb/s.
Format : AVI
Format/Info : Audio Video Interleave
File size : 421 MiB
Duration : 26mn 46s
Overall bit rate : 2 199 Kbps
Writing library : VirtualDub-MPEG2 build 24528/release
Video #0
ID : 0
Format : MPEG-4 Visual
Format profile : Simple@L3
Format settings, BVOP : Yes
Format settings, QPel : No
Format settings, GMC : No warppoints
Format settings, Matrix : Default (H.263)
Muxing mode : Packed bitstream
Codec ID : XVID
Codec ID/Hint : XviD
Duration : 26mn 46s
Bit rate : 1 998 Kbps
Width : 680 pixels
Height : 510 pixels
Display aspect ratio : 4:3
Frame rate : 25.000 fps
Resolution : 24 bits
Colorimetry : 4:2:0
Scan type : Progressive
Bits/(Pixel*Frame) : 0.230
Stream size : 383 MiB (91%)
Writing library : XviD 1.1.0 Beta2 (UTC 2005-04-04)
Audio #1
ID : 1
Format : AC-3
Format/Info : Audio Coding 3
Codec ID : 2000
Duration : 26mn 46s
Bit rate mode : Constant
Bit rate : 192 Kbps
Channel(s) : 2 channels
Channel positions : L R
Sampling rate : 48.0 KHz
Stream size : 36.8 MiB (9%)
Alignment : Aligned on interleaves
Interleave, duration : 40 ms (1.00 video frame)
Interleave, preload duration : 512 ms
Жанр: Комедийный сериал

Продолжительность: 00:26:26
Видеокодек: Xvid
Битрейт видео: ~1987kb/s
Размер кадра: 680X510
Качество видео: DVDRip
Аудиокодек: AC3
Битрейт аудио: 256kb/s.
Format : AVI
Format/Info : Audio Video Interleave
File size : 416 MiB
Duration : 26mn 26s
Overall bit rate : 2 199 Kbps
Writing library : VirtualDub-MPEG2 build 24528/release
Video #0
ID : 0
Format : MPEG-4 Visual
Format profile : Simple@L3
Format settings, BVOP : Yes
Format settings, QPel : No
Format settings, GMC : No warppoints
Format settings, Matrix : Default (H.263)
Muxing mode : Packed bitstream
Codec ID : XVID
Codec ID/Hint : XviD
Duration : 26mn 26s
Bit rate : 1 998 Kbps
Width : 680 pixels
Height : 510 pixels
Display aspect ratio : 4:3
Frame rate : 25.000 fps
Resolution : 24 bits
Colorimetry : 4:2:0
Scan type : Progressive
Bits/(Pixel*Frame) : 0.230
Stream size : 378 MiB (91%)
Writing library : XviD 1.1.0 Beta2 (UTC 2005-04-04)
Audio #1
ID : 1
Format : AC-3
Format/Info : Audio Coding 3
Codec ID : 2000
Duration : 26mn 26s
Bit rate mode : Constant
Bit rate : 192 Kbps
Channel(s) : 2 channels
Channel positions : L R
Sampling rate : 48.0 KHz
Stream size : 36.3 MiB (9%)
Alignment : Aligned on interleaves
Interleave, duration : 40 ms (1.00 video frame)
Interleave, preload duration : 512 ms
Жанр: Комедийный сериал

Продолжительность: 00:25:57
Видеокодек: Xvid
Битрейт видео: ~1987kb/s
Размер кадра: 680X510
Качество видео: DVDRip
Аудиокодек: AC3
Битрейт аудио: 256kb/s.
Format : AVI
Format/Info : Audio Video Interleave
File size : 408 MiB
Duration : 25mn 57s
Overall bit rate : 2 199 Kbps
Writing library : VirtualDub-MPEG2 build 24528/release
Video #0
ID : 0
Format : MPEG-4 Visual
Format profile : Simple@L3
Format settings, BVOP : Yes
Format settings, QPel : No
Format settings, GMC : No warppoints
Format settings, Matrix : Default (H.263)
Muxing mode : Packed bitstream
Codec ID : XVID
Codec ID/Hint : XviD
Duration : 25mn 57s
Bit rate : 1 998 Kbps
Width : 680 pixels
Height : 510 pixels
Display aspect ratio : 4:3
Frame rate : 25.000 fps
Resolution : 24 bits
Colorimetry : 4:2:0
Scan type : Progressive
Bits/(Pixel*Frame) : 0.230
Stream size : 371 MiB (91%)
Writing library : XviD 1.1.0 Beta2 (UTC 2005-04-04)
Audio #1
ID : 1
Format : AC-3
Format/Info : Audio Coding 3
Codec ID : 2000
Duration : 25mn 57s
Bit rate mode : Constant
Bit rate : 192 Kbps
Channel(s) : 2 channels
Channel positions : L R
Sampling rate : 48.0 KHz
Stream size : 35.6 MiB (9%)
Alignment : Aligned on interleaves
Interleave, duration : 40 ms (1.00 video frame)
Interleave, preload duration : 512 ms
Жанр: Комедийный сериал

Продолжительность: 00:26:55
Видеокодек: Xvid
Битрейт видео: ~1987kb/s
Размер кадра: 680X510
Качество видео: DVDRip
Аудиокодек: AC3
Битрейт аудио: 256kb/s.
Format : AVI
Format/Info : Audio Video Interleave
File size : 424 MiB
Duration : 26mn 55s
Overall bit rate : 2 199 Kbps
Writing library : VirtualDub-MPEG2 build 24528/release
Video #0
ID : 0
Format : MPEG-4 Visual
Format profile : Simple@L3
Format settings, BVOP : Yes
Format settings, QPel : No
Format settings, GMC : No warppoints
Format settings, Matrix : Default (H.263)
Muxing mode : Packed bitstream
Codec ID : XVID
Codec ID/Hint : XviD
Duration : 26mn 55s
Bit rate : 1 998 Kbps
Width : 680 pixels
Height : 510 pixels
Display aspect ratio : 4:3
Frame rate : 25.000 fps
Resolution : 24 bits
Colorimetry : 4:2:0
Scan type : Progressive
Bits/(Pixel*Frame) : 0.230
Stream size : 385 MiB (91%)
Writing library : XviD 1.1.0 Beta2 (UTC 2005-04-04)
Audio #1
ID : 1
Format : AC-3
Format/Info : Audio Coding 3
Codec ID : 2000
Duration : 26mn 54s
Bit rate mode : Constant
Bit rate : 192 Kbps
Channel(s) : 2 channels
Channel positions : L R
Sampling rate : 48.0 KHz
Stream size : 37.0 MiB (9%)
Alignment : Aligned on interleaves
Interleave, duration : 40 ms (1.00 video frame)
Interleave, preload duration : 512 ms
Жанр: Комедийный сериал

Продолжительность: 00:25:33
Видеокодек: Xvid
Битрейт видео: ~1987kb/s
Размер кадра: 680X510
Качество видео: DVDRip
Аудиокодек: AC3
Битрейт аудио: 256kb/s.
Format : AVI
Format/Info : Audio Video Interleave
File size : 402 MiB
Duration : 25mn 33s
Overall bit rate : 2 200 Kbps
Writing library : VirtualDub-MPEG2 build 24528/release
Video #0
ID : 0
Format : MPEG-4 Visual
Format profile : Simple@L3
Format settings, BVOP : Yes
Format settings, QPel : No
Format settings, GMC : No warppoints
Format settings, Matrix : Default (H.263)
Muxing mode : Packed bitstream
Codec ID : XVID
Codec ID/Hint : XviD
Duration : 25mn 33s
Bit rate : 1 998 Kbps
Width : 680 pixels
Height : 510 pixels
Display aspect ratio : 4:3
Frame rate : 25.000 fps
Resolution : 24 bits
Colorimetry : 4:2:0
Scan type : Progressive
Bits/(Pixel*Frame) : 0.230
Stream size : 365 MiB (91%)
Writing library : XviD 1.1.0 Beta2 (UTC 2005-04-04)
Audio #1
ID : 1
Format : AC-3
Format/Info : Audio Coding 3
Codec ID : 2000
Duration : 25mn 33s
Bit rate mode : Constant
Bit rate : 192 Kbps
Channel(s) : 2 channels
Channel positions : L R
Sampling rate : 48.0 KHz
Stream size : 35.1 MiB (9%)
Alignment : Aligned on interleaves
Interleave, duration : 40 ms (1.00 video frame)
Interleave, preload duration : 512 ms
Жанр: Комедийный сериал

Продолжительность: 00:26:36
Видеокодек: Xvid
Битрейт видео: ~1987kb/s
Размер кадра: 680X510
Качество видео: DVDRip
Аудиокодек: AC3
Битрейт аудио: 256kb/s.
Format : AVI
Format/Info : Audio Video Interleave
File size : 418 MiB
Duration : 26mn 36s
Overall bit rate : 2 200 Kbps
Writing library : VirtualDub-MPEG2 build 24528/release
Video #0
ID : 0
Format : MPEG-4 Visual
Format profile : Simple@L3
Format settings, BVOP : Yes
Format settings, QPel : No
Format settings, GMC : No warppoints
Format settings, Matrix : Default (H.263)
Muxing mode : Packed bitstream
Codec ID : XVID
Codec ID/Hint : XviD
Duration : 26mn 36s
Bit rate : 1 998 Kbps
Width : 680 pixels
Height : 510 pixels
Display aspect ratio : 4:3
Frame rate : 25.000 fps
Resolution : 24 bits
Colorimetry : 4:2:0
Scan type : Progressive
Bits/(Pixel*Frame) : 0.230
Stream size : 380 MiB (91%)
Writing library : XviD 1.1.0 Beta2 (UTC 2005-04-04)
Audio #1
ID : 1
Format : AC-3
Format/Info : Audio Coding 3
Codec ID : 2000
Duration : 26mn 36s
Bit rate mode : Constant
Bit rate : 192 Kbps
Channel(s) : 2 channels
Channel positions : L R
Sampling rate : 48.0 KHz
Stream size : 36.5 MiB (9%)
Alignment : Aligned on interleaves
Interleave, duration : 40 ms (1.00 video frame)
Interleave, preload duration : 512 ms
Жанр: Комедийный сериал

Продолжительность: 00:26:24
Видеокодек: Xvid
Битрейт видео: ~1987kb/s
Размер кадра: 680X510
Качество видео: DVDRip
Аудиокодек: AC3
Битрейт аудио: 256kb/s.
Format : AVI
Format/Info : Audio Video Interleave
File size : 415 MiB
Duration : 26mn 24s
Overall bit rate : 2 200 Kbps
Writing library : VirtualDub-MPEG2 build 24528/release
Video #0
ID : 0
Format : MPEG-4 Visual
Format profile : Simple@L3
Format settings, BVOP : Yes
Format settings, QPel : No
Format settings, GMC : No warppoints
Format settings, Matrix : Default (H.263)
Muxing mode : Packed bitstream
Codec ID : XVID
Codec ID/Hint : XviD
Duration : 26mn 24s
Bit rate : 1 998 Kbps
Width : 680 pixels
Height : 510 pixels
Display aspect ratio : 4:3
Frame rate : 25.000 fps
Resolution : 24 bits
Colorimetry : 4:2:0
Scan type : Progressive
Bits/(Pixel*Frame) : 0.230
Stream size : 377 MiB (91%)
Writing library : XviD 1.1.0 Beta2 (UTC 2005-04-04)
Audio #1
ID : 1
Format : AC-3
Format/Info : Audio Coding 3
Codec ID : 2000
Duration : 26mn 24s
Bit rate mode : Constant
Bit rate : 192 Kbps
Channel(s) : 2 channels
Channel positions : L R
Sampling rate : 48.0 KHz
Stream size : 36.3 MiB (9%)
Alignment : Aligned on interleaves
Interleave, duration : 40 ms (1.00 video frame)
Interleave, preload duration : 512 ms
Жанр: Комедийный сериал

Продолжительность: 00:26:21
Видеокодек: Xvid
Битрейт видео: ~1987kb/s
Размер кадра: 680X510
Качество видео: DVDRip
Аудиокодек: AC3
Битрейт аудио: 256kb/s.
Format : AVI
Format/Info : Audio Video Interleave
File size : 415 MiB
Duration : 26mn 21s
Overall bit rate : 2 199 Kbps
Writing library : VirtualDub-MPEG2 build 24528/release
Video #0
ID : 0
Format : MPEG-4 Visual
Format profile : Simple@L3
Format settings, BVOP : Yes
Format settings, QPel : No
Format settings, GMC : No warppoints
Format settings, Matrix : Default (H.263)
Muxing mode : Packed bitstream
Codec ID : XVID
Codec ID/Hint : XviD
Duration : 26mn 21s
Bit rate : 1 998 Kbps
Width : 680 pixels
Height : 510 pixels
Display aspect ratio : 4:3
Frame rate : 25.000 fps
Resolution : 24 bits
Colorimetry : 4:2:0
Scan type : Progressive
Bits/(Pixel*Frame) : 0.230
Stream size : 377 MiB (91%)
Writing library : XviD 1.1.0 Beta2 (UTC 2005-04-04)
Audio #1
ID : 1
Format : AC-3
Format/Info : Audio Coding 3
Codec ID : 2000
Duration : 26mn 20s
Bit rate mode : Constant
Bit rate : 192 Kbps
Channel(s) : 2 channels
Channel positions : L R
Sampling rate : 48.0 KHz
Stream size : 36.2 MiB (9%)
Alignment : Aligned on interleaves
Interleave, duration : 40 ms (1.00 video frame)
Interleave, preload duration : 512 ms
Жанр: Комедийный сериал

Продолжительность: 00:26:50
Видеокодек: Xvid
Битрейт видео: ~1987kb/s
Размер кадра: 680X510
Качество видео: DVDRip
Аудиокодек: AC3
Битрейт аудио: 256kb/s.
Format : AVI
Format/Info : Audio Video Interleave
File size : 422 MiB
Duration : 26mn 50s
Overall bit rate : 2 199 Kbps
Writing library : VirtualDub-MPEG2 build 24528/release
Video #0
ID : 0
Format : MPEG-4 Visual
Format profile : Simple@L3
Format settings, BVOP : Yes
Format settings, QPel : No
Format settings, GMC : No warppoints
Format settings, Matrix : Default (H.263)
Muxing mode : Packed bitstream
Codec ID : XVID
Codec ID/Hint : XviD
Duration : 26mn 50s
Bit rate : 1 997 Kbps
Width : 680 pixels
Height : 510 pixels
Display aspect ratio : 4:3
Frame rate : 25.000 fps
Resolution : 24 bits
Colorimetry : 4:2:0
Scan type : Progressive
Bits/(Pixel*Frame) : 0.230
Stream size : 383 MiB (91%)
Writing library : XviD 1.1.0 Beta2 (UTC 2005-04-04)
Audio #1
ID : 1
Format : AC-3
Format/Info : Audio Coding 3
Codec ID : 2000
Duration : 26mn 50s
Bit rate mode : Constant
Bit rate : 192 Kbps
Channel(s) : 2 channels
Channel positions : L R
Sampling rate : 48.0 KHz
Stream size : 36.9 MiB (9%)
Alignment : Aligned on interleaves
Interleave, duration : 40 ms (1.00 video frame)
Interleave, preload duration : 512 ms
Жанр: Комедийный сериал

Продолжительность: 00:25:45
Видеокодек: Xvid
Битрейт видео: ~1987kb/s
Размер кадра: 680X510
Качество видео: DVDRip
Аудиокодек: AC3
Битрейт аудио: 256kb/s.
Format : AVI
Format/Info : Audio Video Interleave
File size : 405 MiB
Duration : 25mn 45s
Overall bit rate : 2 199 Kbps
Writing library : VirtualDub-MPEG2 build 24528/release
Video #0
ID : 0
Format : MPEG-4 Visual
Format profile : Simple@L3
Format settings, BVOP : Yes
Format settings, QPel : No
Format settings, GMC : No warppoints
Format settings, Matrix : Default (H.263)
Muxing mode : Packed bitstream
Codec ID : XVID
Codec ID/Hint : XviD
Duration : 25mn 45s
Bit rate : 1 997 Kbps
Width : 680 pixels
Height : 510 pixels
Display aspect ratio : 4:3
Frame rate : 25.000 fps
Resolution : 24 bits
Colorimetry : 4:2:0
Scan type : Progressive
Bits/(Pixel*Frame) : 0.230
Stream size : 368 MiB (91%)
Writing library : XviD 1.1.0 Beta2 (UTC 2005-04-04)
Audio #1
ID : 1
Format : AC-3
Format/Info : Audio Coding 3
Codec ID : 2000
Duration : 25mn 44s
Bit rate mode : Constant
Bit rate : 192 Kbps
Channel(s) : 2 channels
Channel positions : L R
Sampling rate : 48.0 KHz
Stream size : 35.4 MiB (9%)
Alignment : Aligned on interleaves
Interleave, duration : 40 ms (1.00 video frame)
Interleave, preload duration : 512 ms
Жанр: Комедийный сериал

Продолжительность: 00:26:50
Видеокодек: Xvid
Битрейт видео: ~1987kb/s
Размер кадра: 680X510
Качество видео: DVDRip
Аудиокодек: AC3
Битрейт аудио: 256kb/s.
Format : AVI
Format/Info : Audio Video Interleave
File size : 422 MiB
Duration : 26mn 50s
Overall bit rate : 2 199 Kbps
Writing library : VirtualDub-MPEG2 build 24528/release
Video #0
ID : 0
Format : MPEG-4 Visual
Format profile : Simple@L3
Format settings, BVOP : Yes
Format settings, QPel : No
Format settings, GMC : No warppoints
Format settings, Matrix : Default (H.263)
Muxing mode : Packed bitstream
Codec ID : XVID
Codec ID/Hint : XviD
Duration : 26mn 50s
Bit rate : 1 997 Kbps
Width : 680 pixels
Height : 510 pixels
Display aspect ratio : 4:3
Frame rate : 25.000 fps
Resolution : 24 bits
Colorimetry : 4:2:0
Scan type : Progressive
Bits/(Pixel*Frame) : 0.230
Stream size : 383 MiB (91%)
Writing library : XviD 1.1.0 Beta2 (UTC 2005-04-04)
Audio #1
ID : 1
Format : AC-3
Format/Info : Audio Coding 3
Codec ID : 2000
Duration : 26mn 50s
Bit rate mode : Constant
Bit rate : 192 Kbps
Channel(s) : 2 channels
Channel positions : L R
Sampling rate : 48.0 KHz
Stream size : 36.9 MiB (9%)
Alignment : Aligned on interleaves
Interleave, duration : 40 ms (1.00 video frame)
Interleave, preload duration : 512 ms
Жанр: Комедийный сериал

Продолжительность: 00:30:28
Видеокодек: Xvid
Битрейт видео: ~1987kb/s
Размер кадра: 680X510
Качество видео: DVDRip
Аудиокодек: AC3
Битрейт аудио: 256kb/s.
Format : AVI
Format/Info : Audio Video Interleave
File size : 479 MiB
Duration : 30mn 28s
Overall bit rate : 2 199 Kbps
Writing library : VirtualDub-MPEG2 build 24528/release
Video #0
ID : 0
Format : MPEG-4 Visual
Format profile : Simple@L3
Format settings, BVOP : Yes
Format settings, QPel : No
Format settings, GMC : No warppoints
Format settings, Matrix : Default (H.263)
Muxing mode : Packed bitstream
Codec ID : XVID
Codec ID/Hint : XviD
Duration : 30mn 28s
Bit rate : 1 998 Kbps
Width : 680 pixels
Height : 510 pixels
Display aspect ratio : 4:3
Frame rate : 25.000 fps
Resolution : 24 bits
Colorimetry : 4:2:0
Scan type : Progressive
Bits/(Pixel*Frame) : 0.230
Stream size : 435 MiB (91%)
Writing library : XviD 1.1.0 Beta2 (UTC 2005-04-04)
Audio #1
ID : 1
Format : AC-3
Format/Info : Audio Coding 3
Codec ID : 2000
Duration : 30mn 28s
Bit rate mode : Constant
Bit rate : 192 Kbps
Channel(s) : 2 channels
Channel positions : L R
Sampling rate : 48.0 KHz
Stream size : 41.8 MiB (9%)
Alignment : Aligned on interleaves
Interleave, duration : 40 ms (1.00 video frame)
Interleave, preload duration : 512 ms
Скриншоты:

Время раздачи: 24/7 - круглосуточно

П.С. Заранее извиняюсь за отсутствие 3 и 4 серии Маски в партизанском отряде. На неделе поищу. "Реальные детали" взяты из KMPlayer - правый клик - информация о записи. Даты выпуска из википедии.
[NNM-Club.ru]_Maski-shou.torrent
 Торрент: Платиновая раздача  Зарегистрирован
 
Скачать


Примагнититься
 Зарегистрирован:   17 Июн 2012 23:42:02
 Размер:   23,7 GB  (
 Рейтинг:   4,9 (Голосов: 390)
 Поблагодарили:   1184
 Проверка:   Оформление проверено модератором 18 Июн 2012 20:35:42
Как cкачать  ·  Как раздать  ·  Правильно оформить  ·  Поднять ратио!  
Silver-man
Стаж: 7 лет
Сообщений: 58
Ratio: 0,294
100%
russia.gif
Раздайте, плиз!)
Ivansaraih
Стаж: 9 лет 10 мес.
Сообщений: 104
Ratio: 7,205
1.2%
russia.gif
Супер давно искал :респект: КАК качество!
stas59
Стаж: 6 лет 2 мес.
Сообщений: 4
Ratio: 23,715
24.69%
От души!!!!!!!!!!!!!!!! 100500 :новогоднее пиво:
rarao
Стаж: 5 лет 10 мес.
Сообщений: 1
Ratio: 3758,662
11.11%
спасибо,искал.тут всё?
dixon004
Стаж: 9 лет 7 мес.
Сообщений: 64
Ratio: 12,09
Поблагодарили: 118
100%
Бро...Спасибо...На раздаче до конца жизни компа!!!
lux-dik
Стаж: 6 лет 10 мес.
Сообщений: 2
Ratio: 825,715
100%
Откуда: СПб
russia.gif
Похоже так и не нашли 3 и 4 серии "Маски в партизанском отряде".
Если кому надо или релизер добавит к раздаче,то могу дать ссылки на весь фильм.
uLynx
Стаж: 5 лет 7 мес.
Сообщений: 2
Ratio: 5,344
5.32%
На известный трекер есть раздача этих масок в парт. отряде. Сам оттуда качал. Можно добавить к этой раздаче.
anjelika-71
Стаж: 8 лет 10 мес.
Сообщений: 24
Ratio: 0,819
100%
russia.gif
Спасибо большое!
oleg-9999
Стаж: 9 лет 8 мес.
Сообщений: 14
Ratio: 6,923
100%
russia.gif
Огромадный сенкс и респект!!!
madars1
Стаж: 8 лет 10 мес.
Сообщений: 2
Ratio: 40,786
71.43%
russia.gif
большое спасибо за маски! А здесь кабаре маски-шоу полная версия? С Делиевым?
KacoBleNeS
Стаж: 7 лет 3 мес.
Сообщений: 2
Ratio: 11,089
100%
russia.gif
:ура: Да не оскудеет рука раздающего!
koriaba
Стаж: 8 лет 3 мес.
Сообщений: 443
Ratio: 31,742
Раздал: 18,82 TB
100%
Откуда: Kemerovo
ussr.gif
эх ностальжи)
pRax1s
Стаж: 8 лет 2 мес.
Сообщений: 41
Ratio: 21,161
Раздал: 50,83 TB
14.88%
Откуда: Минск
Спасибо!!!
kolman67
Стаж: 5 лет
Сообщений: 282
Ratio: 104,456
Раздал: 14,96 TB
Поблагодарили: 2266
100%
australia.gif
Огромное спасибо !
ESG
Стаж: 9 лет 3 мес.
Сообщений: 105
Ratio: 5,333
61.63%
zimbabwe.gif
в чем была сложность добавить 3 и 4 серии Маски в партизанском отряде??? обломился на самой любимой теме...
Показать сообщения:   
Начать новую тему   Ответить на тему    Торрент-трекер NNM-Club -> Юмор -> Маски-шоу Часовой пояс: GMT + 3
Страницы:   Пред.  1, 2, 3  След.
Страница 2 из 3