Классический форум-трекер
canvas not supported
Нас вместе: 4 076 520

Затерянный в Сибири (1990) DVD9


 
 
RSS
Начать новую тему   Эта тема закрыта, вы не можете писать ответы и редактировать сообщения.    Торрент-трекер NNM-Club -> Классика кино и Старые фильмы до 90-х -> Старые Отечественные Фильмы (DVD)
Автор Сообщение
SJStillAlive ®
Покровитель талантов
 
Стаж: 8 лет 5 мес.
Сообщений: 1474
Ratio: 18,402
Раздал: 17,21 TB
Поблагодарили: 70115
100%
logo.gif
Затерянный в Сибири (1990) DVD9
Производство: Россия
Жанр: Драма

Режиссер: Александр Митта
Актеры: Энтони Эндрюс, Елена Майорова, Владимир Ильин, Евгений Миронов, Наталья Гундарева, Гарик Сукачев, Алексей Жарков, Валентин Гафт, Любовь Соколова, Альберт Филозов, Зиновий Гердт, Михаил Жигалов, Николай Пастухов, Иван Бортник, Михаил Бочаров, Петр Зайченко, Вячеслав Горбунчиков, Игорь Сукачев, Юрий Соколов, Олег Ли, Леонид Тимцуник, Юрий Веялис, Харк Бом, Владимир Прозоров

Описание :
История английского археолога, ошибочно похищенного чекистами из Ирана и по ложному обвинению в шпионаже сосланного в сталинские лагеря…


Возраст: 12+ (зрителям, достигшим 12 лет)

Продолжительность: 01:47:50
Качество видео: DVD9

Видео: MPEG-2, 720x576@768x576, ~7000 Kbps
Аудио #1: AC3 2.0, 192 Кбит/сек, русский
Аудио #2: AC3 2.0, 192 Кбит/сек, английский
Субтитры: русский

Общее
Полное имя : F:\LOST_IN_SIBERIA\VIDEO_TS\VTS_06_4.VOB
Формат : MPEG-PS
Размер файла : 1024 Мбайт
Продолжительность : 18 м.
Общий поток : 7722 Кбит/сек

Видео
Идентификатор : 224 (0xE0)
Формат : MPEG Video
Версия формата : Version 2
Профиль формата : Main@Main
Параметр BVOP формата : Да
Параметр матрицы формата : По умолчанию
Параметры GOP формата : M=2, N=12
Продолжительность : 18 м.
Вид битрейта : Переменный
Битрейт : r
Номинальный битрейт : 9800 Кбит/сек
Ширина : 720 пикс.
Высота : 576 пикс.
Соотношение сторон : 4:3
Частота кадров : 25,000 кадр/сек
Стандарт вещания : PAL
Цветовое пространство : YUV
Подвыборка цветности : 4:2:0
Битовая глубина : 8 бит
Тип развёртки : Чересстрочная
Порядок развёртки : Верхнее поле первое
Метод сжатия : С потерями
Бит/(Пиксели*Кадры) : 0.693
Размер потока : 953 Мбайт (93%)

Аудио #1
Идентификатор : 189 (0xBD)-128 (0x80)
Формат : AC-3
Формат/Информация : Audio Coding 3
Расширение режима : CM (complete main)
Режим смешивания : DVD-Video
Продолжительность : 18 м.
Вид битрейта : Постоянный
Битрейт : 192 Кбит/сек
Каналы : 2 канала
Расположение каналов : Front: L R
Частота : 48,0 КГц
Битовая глубина : 16 бит
Метод сжатия : С потерями
Задержка видео : -88 мс.
Размер потока : 25,5 Мбайт (2%)

Аудио #2
Идентификатор : 189 (0xBD)-129 (0x81)
Формат : AC-3
Формат/Информация : Audio Coding 3
Расширение режима : CM (complete main)
Режим смешивания : DVD-Video
Продолжительность : 18 м.
Вид битрейта : Постоянный
Битрейт : 192 Кбит/сек
Каналы : 2 канала
Расположение каналов : Front: L R
Частота : 48,0 КГц
Битовая глубина : 16 бит
Метод сжатия : С потерями
Задержка видео : -88 мс.
Размер потока : 25,5 Мбайт (2%)

Меню
Title: LOST_IN_SIBERIA
Size: 6.27 Gb ( 6 578 640,00 KBytes ) - DVD-9
Enabled regions: 1, 2, 3, 4, 5, 6, 7, 8

VTS_01 :
Play Length: 00:00:10
Video: PAL 4:3 (720x576) VBR

VTS_02 :
Play Length: 00:00:07
Video: PAL 4:3 (720x576) VBR
Audio:
English (Dolby AC3, 6 ch)

VTS_03 :
Play Length: 00:03:03
Video: PAL 16:9 (720x576) VBR, Auto Pan&Scan, Auto Letterboxed
Audio:
English (Dolby AC3, 2 ch)

VTS_04 :
Play Length: 00:02:41
Video: PAL 16:9 (720x576) VBR, Auto Pan&Scan, Auto Letterboxed
Audio:
English (Dolby AC3, 2 ch)

VTS_05 :
Play Length: 00:02:08
Video: PAL 4:3 (720x576) VBR
Audio:
English (Dolby AC3, 2 ch)

VTS_06 :
Play Length: 01:47:50
Video: PAL 4:3 (720x576) VBR
Audio:
Russian (Dolby AC3, 2 ch)
Not specified (Dolby AC3, 2 ch)
Subtitles:
Russian

* Menus Information *

VIDEO_TS Menu
Video:
PAL 4:3 (720x576) VBR
English Language Unit :
Title Menu

VTS_01 Menu
Video:
PAL 4:3 (720x576) VBR
Audio:
Not specified (Dolby AC3, 2 ch)
English Language Unit :
Root Menu

VTS_02 Menu
Video:
PAL 4:3 (720x576) VBR
English Language Unit :
Root Menu

VTS_03 Menu
Video:
PAL 4:3 (720x576) VBR
English Language Unit :
Root Menu

VTS_04 Menu
Video:
PAL 4:3 (720x576) VBR
English Language Unit :
Root Menu

VTS_05 Menu
Video:
PAL 4:3 (720x576) VBR
English Language Unit :
Root Menu

VTS_06 Menu
Video:
PAL 4:3 (720x576) VBR
English Language Unit :
Root Menu
Дополнительные материалы: создатели, анонсы
Меню: на русском языке
Скриншоты:

Все одноименные релизы в Клубе

Время раздачи: 24/7 (до появления первых 3-5 скачавших)
[NNMClub.to]_[NNM-Club.ru]_LOST_IN_SIBERIA.torrent
 Торрент: Платиновая раздача  Зарегистрирован
 
Скачать


Примагнититься
 Зарегистрирован:   02 Авг 2019 16:28:44
 Размер:   6,27 GB  (
 Рейтинг:   3,7 (Голосов: 44)
 Поблагодарили:   112
 Проверка:   Оформление проверено модератором 02 Авг 2019 16:54:19
Как cкачать  ·  Как раздать  ·  Правильно оформить  ·  Поднять ратио!  
almikl
Куратор Детского.
Модератор Видео.
RG Всё лучшее - детям!
Uploader 500+
 
Стаж: 12 лет 2 мес.
Сообщений: 4658
Ratio: 328,298
Поблагодарили: 104053
100%
Откуда: Дааалекое Подмосковье
russia.gif
Торрент перерегистрирован в рамках акции Включаем DHT в древних раздачах
Теперь вам нужно его скачать и открыть в торрент-клиенте, указав в качестве места сохранения раздаваемый файл или папку.
Показать сообщения:   
Начать новую тему   Эта тема закрыта, вы не можете писать ответы и редактировать сообщения.    Торрент-трекер NNM-Club -> Классика кино и Старые фильмы до 90-х -> Старые Отечественные Фильмы (DVD) Часовой пояс: GMT + 3
Страница 1 из 1