Классический форум-трекер
canvas not supported
Нас вместе: 4 079 187

Чествование (1999) DVDRip


 
 
RSS
Начать новую тему   Ответить на тему    Торрент-трекер NNM-Club -> Архив торрентов -> Архив Музыкального Видео
Автор Сообщение
Николай Анатольевич ®
   
Почетный релизер
 
Стаж: 9 лет 9 мес.
Сообщений: 46540
Ratio: 10,197
Раздал: 7,418 TB
Поблагодарили: 2604502
100%
estonia.gif
Чествование (1999) DVDRip
Русское название: Чествование
Год выпуска: 1999
Жанр: Комедия, мелодрама

Описание:
Герой комедии, поставленной по пьесе Бернарда Слейда.

Скотти Темпелтон и его сын Джаз, на первый взгляд, такие разные люди: Скотти развелся с женой, почти потерял сына, а последний в свою очередь рос без отца. И вот они встречаются... Все движение этой психологической комедии это узнавание отцом сына, сыном - отца и через многие конфликты разных характеров, разных поколений они, в сущности любящие друг друга люди, приходят к настоящей близости...

Режиссер: Михаил Козаков, Иван Краско
В ролях: Михаил Козаков, Леонид Ниценко, Анастасия Мельникова, Наталья Данилова, Геннадий Смирнов, Валентина Панина, Наталья Орлова

Продолжительность: 02:04:36
Качество видео: DVDRip

Видеокодек: DivX 5
Битрейт видео: 1370 Кбит/сек
Размер кадра: 544x384
Аудио: Русский, AC3, 2 ch, 192 Кбит/сек
Код:
Общее
Полное имя                               : F:\Раздачи\Раздачи Театр\Чествование (1999) DVDRip.avi
Формат                                   : AVI
Формат/Информация                        : Audio Video Interleave
Размер файла                             : 1,37 Гбайт
Продолжительность                        : 2 ч. 4 м.
Общий поток                              : 1572 Кбит/сек
Программа кодирования                    : VirtualDubMod 1.5.10.1 (build 2439/release)
Библиотека кодирования                   : VirtualDubMod build 2439/release

Видео
Идентификатор                            : 0
Формат                                   : MPEG-4 Visual
Параметр BVOP формата                    : 1
Параметр QPel формата                    : Нет
Параметр GMC формата                     : Без точки перехода
Параметр матрицы формата                 : Default (H.263)
Режим смешивания                         : Сжатый битовый поток
Идентификатор кодека                     : DX50
Идентификатор кодека/Подсказка           : DivX 5
Продолжительность                        : 2 ч. 4 м.
Битрейт                                  : 1370 Кбит/сек
Ширина                                   : 544 пикселя
Высота                                   : 384 пикселя
Соотношение сторон                       : 1,417
Частота кадров                           : 25,000 кадров/сек
Цветовое пространство                    : YUV
Субдискретизация насыщенности            : 4:2:0
Битовая глубина                          : 8 бит
Тип развёртки                            : Прогрессивная
Метод сжатия                             : С потерями
Бит/(Пиксели*Кадры)                      : 0.262
Размер потока                            : 1,19 Гбайт (87%)
Библиотека кодирования                   : DivX 5.0.5 (UTC 2003-04-24)

Аудио
Идентификатор                            : 1
Формат                                   : AC-3
Формат/Информация                        : Audio Coding 3
Расширение режима                        : CM (complete main)
Параметр Endianness формата              : Big
Идентификатор кодека                     : 2000
Продолжительность                        : 2 ч. 4 м.
Вид битрейта                             : Постоянный
Битрейт                                  : 192 Кбит/сек
Каналы                                   : 2 канала
Расположение каналов                     : Front: L R
Частота                                  : 48,0 КГц
Битовая глубина                          : 16 бит
Метод сжатия                             : С потерями
Размер потока                            : 171 Мбайт (12%)
Выравнивание                             : Разделение по промежуткам
Продолжительность промежутка             : 40  мс. (1,00 видеокадр)
Время предзагрузки промежутка            : 500  мс.
Скриншоты:


Время раздачи: 9.00 - 23.00 (по мере возможности...)
[NNM-Club.ru]_CHestvovanie (1999) DVDRip.avi.torrent
 Торрент: Платиновая раздача  Зарегистрирован
 
Скачать


Примагнититься
 Зарегистрирован:   22 Июн 2012 06:51:52
 Размер:   1,37 GB  (
 Рейтинг:   4,5 (Голосов: 11)
 Поблагодарили:   36
 Проверка:   Оформление проверено модератором 22 Июн 2012 08:55:21
Как cкачать  ·  Как раздать  ·  Правильно оформить  ·  Поднять ратио!  
Топик был перенесен из форума Театр в форум Архив Музыкального Видео

Причина переноса: Отсутствие сидов более трех месяцев.

Исправил релиз - напиши ЛС ALLic, дав ссылку на релиз.
Если нет ответа 24 часа - нажми на кнопку "Обратить внимание модераторов".
Северный_Гуляка
Стаж: 7 лет 7 мес.
Сообщений: 711
Ratio: 109,722
Поблагодарили: 638
100%
Откуда: СЕВЕР
ussr.gif
Спасибо! Жаль что качество не 3D :D

_________________
Поддержу Интересные РедкоСидируемые Раздачи - Смотри (список) "Спасибо" (просьбу-ссылку в Личную берлогу - [ЛС]) [НОЧЬ по МСК Предпочтение]
Показать сообщения:   
Начать новую тему   Ответить на тему    Торрент-трекер NNM-Club -> Архив торрентов -> Архив Музыкального Видео Часовой пояс: GMT + 3
Страница 1 из 1