Классический форум-трекер
canvas not supported
Нас вместе: 4 079 151

Без страха и упрека (1962) DVD5


 
 
RSS
Начать новую тему   Ответить на тему    Торрент-трекер NNM-Club -> Видео -> Отечественные Фильмы для детей
Автор Сообщение
SJStillAlive ®
Покровитель талантов
 
Стаж: 8 лет 7 мес.
Сообщений: 1474
Ratio: 17,342
Раздал: 17,21 TB
Поблагодарили: 70180
100%
logo.gif
Без страха и упрека (1962) DVD5
Производство: СССР
Жанр: Драма, Приключения

Режиссер: Александр Митта
Актеры: Алла Витрук, Виктор Глазков, Николай Бурляев, Савелий Крамаров, Николай Волков, Лев Золотухин, Марина Стриженова, Людмила Марченко, Анатолий Юшко, Елена Максимова, Николай Кодин, Эммануил Геллер, Елена Кононенко, Юрий Никулин, Кларина Фролова

Описание :
Командировочник Репнин приехал в Москву, чтобы отгрузить оборудование и сразу же вылететь в Заусолье, где его ждала экспедиция. Но в московской сутолоке Репнин теряет все деньги, которые находят Вадик, Юра и Тоша. Дети вошли в положение пострадавшего и решили найти его. Ключом к поискам стала программка испытаний рысаков, в которую были завернуты деньги. Дорога на ипподром оказалась длинной и интересной…

Продолжительность: 01:20:04
Субтитры: отсутствуют


Возраст: 12+ (зрителям, достигшим 12 лет)

Видеокодек: MPEG-2
Битрейт видео: ~6442 Кбит/сек
Размер кадра: 720 х 576@768 х 576
Качество видео: DVD5
Аудиокодек: AC3 2.0
Битрейт аудио: 384 Кбит/сек
Общее
Полное имя : F:\BEZ_STRAXA\VIDEO_TS\VTS_01_2.VOB
Формат : MPEG-PS
Размер файла : 1024 Мбайт
Продолжительность : 20 м.
Общий поток : 6964 Кбит/сек

Видео
Идентификатор : 224 (0xE0)
Формат : MPEG Video
Версия формата : Version 2
Профиль формата : Main@Main
Параметр BVOP формата : Да
Параметр матрицы формата : По умолчанию
Параметры GOP формата : M=3, N=12
Продолжительность : 20 м.
Вид битрейта : Переменный
Битрейт : 6442 Кбит/сек
Номинальный битрейт : 9000 Кбит/сек
Ширина : 720 пикс.
Высота : 576 пикс.
Соотношение сторон : 4:3
Частота кадров : 25,000 кадр/сек
Стандарт вещания : PAL
Цветовое пространство : YUV
Подвыборка цветности : 4:2:0
Битовая глубина : 8 бит
Тип развёртки : Чересстрочная
Порядок развёртки : Верхнее поле первое
Метод сжатия : С потерями
Бит/(Пиксели*Кадры) : 0.621
Размер потока : 947 Мбайт (92%)

Аудио
Идентификатор : 189 (0xBD)-128 (0x80)
Формат : AC-3
Формат/Информация : Audio Coding 3
Расширение режима : CM (complete main)
Режим смешивания : DVD-Video
Продолжительность : 20 м.
Вид битрейта : Постоянный
Битрейт : 384 Кбит/сек
Каналы : 2 канала
Расположение каналов : Front: L R
Частота : 48,0 КГц
Битовая глубина : 16 бит
Метод сжатия : С потерями
Задержка видео : -376 мс.
Размер потока : 56,5 Мбайт (6%)

Меню
Title: BEZ_STRAXA
Size: 3.96 Gb ( 4 156 576,00 KBytes ) - DVD-5
Enabled regions: 1, 2, 3, 4, 5, 6, 7, 8

VTS_01 :
Play Length: 01:20:04
Video: PAL 4:3 (720x576) VBR, Letterboxed
Audio:
Russian (Dolby AC3, 2 ch)

* Menus Information *

VIDEO_TS Menu
Video:
PAL 4:3 (720x576) VBR
Letterboxed
Audio:
Not specified (Dolby AC3, 2 ch)
English Language Unit :
Title Menu

VTS_01 Menu
Video:
PAL 4:3 (720x576) VBR
Audio:
Not specified (Dolby AC3, 2 ch)
English Language Unit :
Root Menu
Дополнительные материалы: отсутствуют
Меню: на русском языке
Скриншоты:

Без страха и упрека на NNM-club
Время раздачи: практически ежедневно с 12 до 4 до 10 скачавших
[NNMClub.to]_Bez straha i upreka.1962.DVD5.torrent
 Торрент: Платиновая раздача  Зарегистрирован
 
Скачать


Примагнититься
 Зарегистрирован:   07 Авг 2019 11:09:35
 Размер:   3,96 GB  (
 Рейтинг:   5 (Голосов: 30)
 Поблагодарили:   99
 Проверка:   Оформление проверено модератором 07 Авг 2019 11:12:54
Как cкачать  ·  Как раздать  ·  Правильно оформить  ·  Поднять ратио!  
almikl
Куратор Детского.
Модератор Видео.
RG Всё лучшее - детям!
Uploader 500+
 
Стаж: 12 лет 4 мес.
Сообщений: 4758
Ratio: 339,487
Поблагодарили: 107442
100%
Откуда: Дааалекое Подмосковье
russia.gif
Торрент перерегистрирован в рамках акции Включаем DHT в древних раздачах
Теперь вам нужно его скачать и открыть в торрент-клиенте, указав в качестве места сохранения раздаваемый файл или папку.
Показать сообщения:   
Начать новую тему   Ответить на тему    Торрент-трекер NNM-Club -> Видео -> Отечественные Фильмы для детей Часовой пояс: GMT + 3
Страница 1 из 1