Классический форум-трекер
canvas not supported
Нас вместе: 4 093 489

Суворов. Альпийский поход (2010) SATRip


 
 
RSS
Начать новую тему   Ответить на тему    Торрент-трекер NNM-Club -> Документалистика и Телепередачи -> Отечественная история
Автор Сообщение
art-61 ®
Стаж: 8 лет 8 мес.
Сообщений: 1100
Ratio: 134,829
Поблагодарили: 141484
100%
Откуда: Санкт-Петербург
russia.gif
Суворов. Альпийский поход (2010) SATRip
Производство: Россия, киностудия "Натакам"
Жанр: Документальный, познавательный, история

Режиссер: Татьяна Денисова

Описание:
Фильм рассказывает о легендарном русском полководце Александре Васильевиче Суворове и переходе русской армии под его предводительством через Альпы в сентябре 1799 года. В Швейцарии до сих пор хранят память о том походе и о самом Суворове, его считают освободителем, знают о нем больше, чем о Наполеоне, создают музеи, открывают памятники, называют детей в честь русского генерала.

Продолжительность: 00:38:57
Качество видео: SATRip
Перевод: Одноголосый закадровый (Интервью иностранных участников)
Язык озвучки: Русский

Видео: Xvid, 672x400, ~1700 Kbps
Аудио: MP3, 2 ch, 128 Kbps
Общее
Полное имя : E:\Suvorov.Alpijskij.pohod.2010.XviD.SATRip.avi
Формат : AVI
Формат/Информация : Audio Video Interleave
Размер файла : 512 Мбайт
Продолжительность : 38 м.
Общий поток : 1838 Кбит/сек
Программа кодирования : VirtualDubMod 1.5.10.3 | www.virtualdub-fr.org || (build 2550/release)
Библиотека кодирования : VirtualDubMod build 2550/release

Видео
Идентификатор : 0
Формат : MPEG-4 Visual
Профиль формата : Advanced Simple@L5
Параметр BVOP формата : 2
Параметр QPel формата : Нет
Параметр GMC формата : Без точки перехода
Параметр матрицы формата : Default (H.263)
Идентификатор кодека : XVID
Идентификатор кодека/Подсказка : XviD
Продолжительность : 38 м.
Битрейт : 1701 Кбит/сек
Ширина : 672 пикселя
Высота : 400 пикселей
Соотношение сторон : 1,680
Частота кадров : 25,000 кадров/сек
Цветовое пространство : YUV
Субдискретизация насыщенности : 4:2:0
Битовая глубина : 8 бит
Тип развёртки : Прогрессивная
Метод сжатия : С потерями
Бит/(Пиксели*Кадры) : 0.253
Размер потока : 474 Мбайт (93%)
Библиотека кодирования : XviD 64

Аудио
Идентификатор : 1
Формат : MPEG Audio
Версия формата : Version 1
Профиль формата : Layer 3
Идентификатор кодека : 55
Идентификатор кодека/Подсказка : MP3
Продолжительность : 38 м.
Вид битрейта : Постоянный
Битрейт : 128 Кбит/сек
Каналы : 2 канала
Частота : 48,0 КГц
Метод сжатия : С потерями
Размер потока : 35,7 Мбайт (7%)
Выравнивание : Соединение по промежуткам
Продолжительность промежутка : 40 мс. (1,00 видеокадр)
Время предзагрузки промежутка : 504 мс.
Библиотека кодирования : L3.99r
Настройки программы : -m s -V 4 -q 0 -lowpass 17 -b 128
Скриншоты:


Все одноименные релизы в Клубе
Время раздачи: 24/7 по возможности
[NNM-Club.ru]_Suvorov.Alpijskij.pohod.2010.XviD.SATRip.avi.torrent
 Торрент: Платиновая раздача  Зарегистрирован
 
Скачать


Примагнититься
 Зарегистрирован:   04 Июл 2012 14:31:26
 Размер:   512 MB  (
 Рейтинг:   4,9 (Голосов: 37)
 Поблагодарили:   111
 Проверка:   Оформление проверено модератором 04 Июл 2012 16:11:19
Как cкачать  ·  Как раздать  ·  Правильно оформить  ·  Поднять ратио!  
pericl
Куратор форумов
Новогодний олень
Стаж: 9 лет 6 мес.
Сообщений: 2483
Ratio: 394,135
100%
Откуда: Вологда
russia.gif
Реставрация.

_________________

Птицей стучится в жилах кровь, вера да надежда, любовь.
Показать сообщения:   
Начать новую тему   Ответить на тему    Торрент-трекер NNM-Club -> Документалистика и Телепередачи -> Отечественная история Часовой пояс: GMT + 3
Страница 1 из 1