Классический форум-трекер
canvas not supported
Нас вместе: 4 095 146

Дневники вампира / The Vampire Diaries [сезон 3, серии 01-22 из 22] (2011) WEB-DLRip


 
 
RSS
Начать новую тему   Ответить на тему    Торрент-трекер NNM-Club -> Зарубежные сериалы -> Дневники вампира / Vampire Diaries ; Настоящая кровь / True Blood; Древние / Originals
Автор Сообщение
navy ®
Стаж: 10 лет 10 мес.
Сообщений: 42
Ratio: 1215,537
Поблагодарили: 3579
100%
russia.gif
Дневники вампира / The Vampire Diaries [сезон 3, серии 01-22 из 22] (2011) WEB-DLRip
Русское название: Дневники вампира Сезон: 3
Оригинальное название: The Vampire Diaries
Год выпуска: 2011
Жанр: Ужасы, Фэнтези, Драма

Перевод:
Многоголосый закадровый, профессиональный - LostFilm
Профессиональный двухголосый закадровый - Кубик в Кубе

Русские субтитры: Есть
Английские субтитры: Есть



Режиссер: Маркос Сига
Актеры: Нина Добрев, Пол Уэсли, Иен Сомерхолдер, Стивен Р. МакКуин, Катерина Грэхэм, Кэндис Аккола, Зак Рериг, Майкл Тревино, Мэттью Дэвис, Сара Каннинг

Описание фильма:
Стефан и Елена тут же чувствуют взаимную симпатию, но Елена даже не подозревает, что Стефан - вампир, которому уже сотни лет, и который старается мирно жить среди людей, несмотря на то, что его брат, Дэймон - воплощение вампирской жестокости и кровожадности. Теперь два брата-вампира - один добрый, другой злой - ведут борьбу за души Елены, ее друзей и других жителей городка Мистик Фоллз.
3 сезон приоткрывает завесу тайны на личность Клауса и семьи Древних и причины того, почему он хочет привлечь Стефана на свою сторону, наконец-то раскрываются. Пока Стефана всё больше захватывает тёмная сторона, Дэймон и Елена борются с чувством вины из-за крепнущих между ними уз, в то время как они совместно пытаются вытащить Стефана с края пропасти. Призраки прошлого Джереми пытаются донести до него очень важное сообщение, не говоря уж о том, какое влияние они оказывают на его отношения с Бонни. В то время как Кэролайн и Тайлер становятся ближе друг к другу, вспыхивает война между их семьями.
Список эпизодов:

01. The Birthday / День рождения
02. The Hybrid / Гибрид
03. The End of the Affair / Конец романа
04. Disturbing Behavior / Вызывающее поведение
05. The Reckoning / Обратный отсчёт
06. Smells Like Teen Spirit / Повеяло юностью
07. Ghost World / Мир призраков
08. Ordinary People / Обычные люди
09. Homecoming / Вечер встреч
10. The New Deal / Новая сделка
11. Our Town / Наш город
12. The Ties That Bind / Узы, которые связывают
13. Bringing Out the Dead / Воскрешая мертвых
14. Dangerous Liaisons / Опасные связи
15. All My Children / Все мои дети
16. 1912
17. Break On Through / Прорыв
18. The Murder of One / Убийство одного
19. Heart of Darkness / Тьма на сердце
20. Do Not Go Gentle / Обойдемся без нежностей
21. Before Sunset / До заката
22. The Departed / Покойники
Format : Matroska
Format version : Version 2
File size : 1.60 GiB
Duration : 42mn 29s
Overall bit rate : 5 394 Kbps
Movie name : The Vampire Diaries [Season 3] (2011) - Release for HDCLUB
Encoded date : UTC 2011-10-02 02:06:55
Writing application : mkvmerge v4.9.1 ('Ich will') built on Jul 11 2011 23:53:15
Writing library : libebml v1.2.1 + libmatroska v1.1.1

Video
ID : 1
Format : AVC
Format/Info : Advanced Video Codec
Format profile : High@L3.1
Format settings, CABAC : No
Format settings, ReFrames : 2 frames
Codec ID : V_MPEG4/ISO/AVC
Duration : 42mn 29s
Bit rate : 4 135 Kbps
Width : 1 280 pixels
Height : 720 pixels
Display aspect ratio : 16:9
Frame rate : 23.976 fps
Color space : YUV
Chroma subsampling : 4:2:0
Bit depth : 8 bits
Scan type : Progressive
Bits/(Pixel*Frame) : 0.187
Stream size : 1.23 GiB (77%)
Title : Season 3, Episode 3: The End of the Affair / Конец романа - Release for HDCLUB
Language : English
Default : Yes
Forced : No
Color primaries : BT.709-5, BT.1361, IEC 61966-2-4, SMPTE RP177
Transfer characteristics : BT.709-5, BT.1361
Matrix coefficients : BT.709-5, BT.1361, IEC 61966-2-4 709, SMPTE RP177

Audio #1
ID : 2
Format : AC-3
Format/Info : Audio Coding 3
Mode extension : CM (complete main)
Codec ID : A_AC3
Duration : 42mn 29s
Bit rate mode : Constant
Bit rate : 384 Kbps
Channel(s) : 6 channels
Channel positions : Front: L C R, Side: L R, LFE
Sampling rate : 48.0 KHz
Bit depth : 16 bits
Compression mode : Lossy
Stream size : 117 MiB (7%)
Title : LostFilm
Language : Russian
Default : Yes
Forced : No

Audio #2
ID : 3
Format : AC-3
Format/Info : Audio Coding 3
Mode extension : CM (complete main)
Codec ID : A_AC3
Duration : 42mn 29s
Bit rate mode : Constant
Bit rate : 384 Kbps
Channel(s) : 6 channels
Channel positions : Front: L C R, Side: L R, LFE
Sampling rate : 48.0 KHz
Bit depth : 16 bits
Compression mode : Lossy
Stream size : 117 MiB (7%)
Title : Кубик в Кубе
Language : Russian
Default : No
Forced : No

Audio #3
ID : 4
Format : AC-3
Format/Info : Audio Coding 3
Mode extension : CM (complete main)
Codec ID : A_AC3
Duration : 42mn 29s
Bit rate mode : Constant
Bit rate : 384 Kbps
Channel(s) : 6 channels
Channel positions : Front: L C R, Side: L R, LFE
Sampling rate : 48.0 KHz
Bit depth : 16 bits
Compression mode : Lossy
Stream size : 117 MiB (7%)
Language : English
Default : No
Forced : No

Text #1
ID : 5
Format : UTF-8
Codec ID : S_TEXT/UTF8
Codec ID/Info : UTF-8 Plain Text
Language : Russian
Default : No
Forced : No

Text #2
ID : 6
Format : UTF-8
Codec ID : S_TEXT/UTF8
Codec ID/Info : UTF-8 Plain Text
Language : English
Default : No
Forced : No
Продолжительность: 22 серии по ~ 00:44:00
Качество видео: WEB-DL 720p

Сэмпл: Скачать

ВСЕ РАЗДАЧИ СЕРИАЛА

Формат: MKV
Видеокодек: H.264
Битрейт видео: ~4000 kbps
Размер кадра: 1280x720
Аудиокодек: AC3
Аудио #1: 48 kHz, AC3, 3/2 (L,C,R,l,r) + LFE ch, 384 kbps avg |LostFilm|
Аудио #2: 48 kHz, AC3, 3/2 (L,C,R,l,r) + LFE ch, 384 kbps avg |Кубик в Кубе|
Аудио #3: 48 kHz, AC3, 3/2 (L,C,R,l,r) + LFE ch, 384 kbps avg |Original|

Скриншоты:



Время раздачи: 24/7 - до первых скачавших
[NNM-Club.ru]_The.Vampire.Diaries.S03.720p.WEB-DL.2xRus.Eng.HDCLUB.torrent
 Торрент: Платиновая раздача  Зарегистрирован
 
Скачать


 Зарегистрирован:   06 Июл 2012 12:18:55
 Размер:   34 GB  (
 Рейтинг:   4,7 (Голосов: 48)
 Поблагодарили:   170
 Проверка:   Оформление проверено модератором 06 Июл 2012 13:59:18
Как cкачать  ·  Как раздать  ·  Правильно оформить  ·  Поднять ратио!  
Garryson
Сталкер
Uploader 200+
Стаж: 11 лет 7 мес.
Сообщений: 5023
Ratio: 1088,076
Поблагодарили: 162209
100%
Откуда: DFO
Скриншоты должны быть в виде кликабельных миниатюр размером не более 180 px
kingnosferatu
Стаж: 9 лет 2 мес.
Сообщений: 15
Ratio: 17,233
Раздал: 7,355 TB
100%
russia.gif
дайте скорости плиз
lllod
Стаж: 7 лет 7 мес.
Сообщений: 14
Ratio: 8,054
Поблагодарили: 173
15.38%
Дайте скорости, пожалуйста. Всего ~500 Кб/с.
Показать сообщения:   
Начать новую тему   Ответить на тему    Торрент-трекер NNM-Club -> Зарубежные сериалы -> Дневники вампира / Vampire Diaries ; Настоящая кровь / True Blood; Древние / Originals Часовой пояс: GMT + 3
Страница 1 из 1