Классический форум-трекер
canvas not supported
Нас вместе: 4 114 182

Чужая земля (На дальней орбите) / Outland (1981) BDRemux [H.264/1080p]


 
 
RSS
Начать новую тему   Ответить на тему    Торрент-трекер NNM-Club -> Классика кино и Старые фильмы до 90-х -> Старые Зарубежные Фильмы (HD, UHD, UHD-LQ, 3D)
Автор Сообщение
ElektrAа ®
Uploader 500+
Стаж: 9 лет 4 мес.
Сообщений: 2778
Ratio: 4268,575
Раздал: 507,6 TB
Поблагодарили: 385032
100%
Откуда: Южная столица
ukraine.gif
Чужая земля / Outland (1981) BDRemux
Русское название: Чужая земля
Оригинальное название: Outland
Год выпуска: 1981
Жанр: Фантастика, Боевик

Описание фильма:
ХХI век. Ио. Самый удаленный спутник Юпитера. Шериф О'Нейл обнаруживает махинации компании по добыче руды, которая распространяет среди шахтеров некий допинг, повышающий производительность труда, но имеющий опасные побочные эффекты. В конфронтации с руководителем компании у шерифа нет союзников, так что он готовится один вступить в схватку с наемными убийцами, посланных на ближайшем Шаттле.

Режиссер: Питер Хэймс / Peter Hyams
Актеры: Шон Коннери, Питер Бойл, Фрэнсис Стернхэйген, Джеймс Б. Сиккинг, Кика Маркэм, Кларк Питерс, Стивен Беркофф, Джон Ратценбергер, Николас Барнс, Мэннинг Редвуд



Рейтинг R - Детям до 17 лет обязательно присутствие родителей

Продолжительность: 01:49:17
Качество видео: BDRemux
Перевод: Профессиональный (двухголосый закадровый) НТВ + Профессиональный (дублированный) Варус Видео VHS
Cубтитры: английские
Оригинальная аудиодорожка: английский

Видеокодек: AVC/H.264, 1920x1080, ~17955 kbps
Аудио 1: Russian / AC3 / 48 kHz / 192 kbps / 2 Ch / 16 bit / DVO
Аудио 2: Russian / AC3 / 48 kHz / 192 kbps / 2 Ch / 16 bit / DUB
Аудио 3: English / DTS-HD Master Audio / 5.1 Ch / 48 kHz / 4040 kbps / 24-bit (DTS Core: 5.1 / 48 kHz / 1509 kbps / 24-bit) / Original
Формат субтитров: softsub (SRT)
Навигация по главам: есть


Скриншоты:
Алан Дин Фостер написал новеллизацию фильма «Чужая земля».
В 1981 году журнал «Heavy Metal» публиковал комиксы по мотивам фильма.
Рабочее название фильма было «Ио» (англ. Io), но перед выходом в прокат было изменено из-за опасений, что такое название будет читаться зрителями как цифра 10.
«Чужая земля» во много заимствует фабулу классического вестерна 1952 года «Ровно в полдень» («High Noon»).
Название добывающей компании - Con-Amalgamate. Точно так же называется компания по производству дефектной системы жизнеобеспечения в фильме Питера Хаймса «Козерог 1» (1978).
Слоган картины «Даже в космосе последний враг – человек» (Even in space, the ultimate enemy is man) немного перефразирует слоган «Чужого» (1979).
Роль доктора Лазаруса сначала была предложена Коллин Дьюхёрст.
Шону Коннери пришлось отказаться от роли в «Огненных колесницах» (1981), т.к. съёмки фильма затянулись.
Оскар, 1982 год
Номинации (1):

Лучший звук

Сатурн, 1982 год
Победитель (1):

Лучшая актриса второго плана (Фрэнсис Стернхаген)

Номинации (5):

Лучший актер (Шон Коннери)
Лучший сценарий
Лучшие спецэффекты
Лучшая музыка
Лучший научно-фантастический фильм
General
Complete name : O:\Outland.1981.BD-Remux.1080p.mkv
Format : Matroska
File size : 17.1 GiB
Duration : 1h 49mn
Overall bit rate : 22.3 Mbps
Encoded date : UTC 2012-06-30 18:27:53
Writing application : mkvmerge v5.6.0 ('Kenya Kane') built on May 27 2012 16:44:04
Writing library : libebml v1.2.3 + libmatroska v1.3.0

Video
ID : 1
Format : AVC
Format/Info : Advanced Video Codec
Format profile : High@L4.1
Format settings, CABAC : Yes
Format settings, ReFrames : 2 frames
Muxing mode : Container profile=Unknown@4.1
Codec ID : V_MPEG4/ISO/AVC
Duration : 1h 49mn
Width : 1 920 pixels
Height : 1 080 pixels
Display aspect ratio : 16:9
Frame rate : 23.976 fps
Resolution : 8 bits
Colorimetry : 4:2:0
Scan type : Progressive

Audio #1
ID : 2
Format : AC-3
Format/Info : Audio Coding 3
Codec ID : A_AC3
Duration : 1h 49mn
Bit rate mode : Constant
Bit rate : 192 Kbps
Channel(s) : 2 channels
Channel positions : L R
Sampling rate : 48.0 KHz
Stream size : 150 MiB (1%)
Title : DVO
Language : Russian

Audio #2
ID : 3
Format : AC-3
Format/Info : Audio Coding 3
Codec ID : A_AC3
Duration : 1h 49mn
Bit rate mode : Constant
Bit rate : 192 Kbps
Channel(s) : 2 channels
Channel positions : L R
Sampling rate : 48.0 KHz
Stream size : 150 MiB (1%)
Title : Дубляж_ Варус Видео VHS
Language : Russian

Audio #3
ID : 4
Format : DTS
Format/Info : Digital Theater Systems
Format profile : MA
Codec ID : A_DTS
Duration : 1h 49mn
Bit rate mode : Variable
Channel(s) : 6 channels
Channel positions : Front: L C R, Surround: L R, LFE
Sampling rate : 48.0 KHz
Resolution : 24 bits
Title : ENG

Text
ID : 5
Format : UTF-8
Codec ID : S_TEXT/UTF8
Codec ID/Info : UTF-8 Plain Text
Title : ENG

Menu
00:00:00.000 : :Chapter 01
00:01:44.080 : :Chapter 02
00:03:48.920 : :Chapter 03
00:07:35.920 : :Chapter 04
00:10:19.400 : :Chapter 05
00:14:07.520 : :Chapter 06
00:17:02.560 : :Chapter 07
00:19:51.360 : :Chapter 08
00:23:17.200 : :Chapter 09
00:27:54.800 : :Chapter 10
00:31:42.440 : :Chapter 11
00:33:48.720 : :Chapter 12
00:40:05.040 : :Chapter 13
00:44:08.200 : :Chapter 14
00:46:15.320 : :Chapter 15
00:52:39.160 : :Chapter 16
00:56:53.200 : :Chapter 17
00:58:11.440 : :Chapter 18
01:00:36.680 : :Chapter 19
01:02:27.640 : :Chapter 20
01:06:26.640 : :Chapter 21
01:11:30.400 : :Chapter 22
01:16:11.000 : :Chapter 23
01:22:59.800 : :Chapter 24
01:25:33.320 : :Chapter 25
01:29:58.000 : :Chapter 26
01:32:24.760 : :Chapter 27
01:35:25.800 : :Chapter 28
01:38:50.360 : :Chapter 29
01:40:18.400 : :Chapter 30
01:42:05.840 : :Chapter 31
Время раздачи: 24/7 - круглосуточно)
Работавший над релизом никогда не откажется от благодарности в виде СПАСИБО!!!! :супер!:
[NNM-Club.ru]_Outland.1981.BD-Remux.1080p.mkv.torrent
 Торрент: Платиновая раздача  Зарегистрирован
 
Скачать


 Зарегистрирован:   06 Июл 2012 16:16:57
 Размер:   17,1 GB  (
 Рейтинг:   4,5 (Голосов: 18)
 Поблагодарили:   76
 Проверка:   Оформление проверено модератором 07 Июл 2012 10:45:22
Как cкачать  ·  Как раздать  ·  Правильно оформить  ·  Поднять ратио!  

_________________
«Правила оформления релизов в разделе Видео» | После исправлений - в ЛС
dantezzz
Стаж: 8 лет 10 мес.
Сообщений: 303
Ratio: 14,897
Поблагодарили: 185
100%
Откуда: Nezhin
ukraine.gif
Для для нынешнего времени фильм оказался неплохой, Коннери еще такой молодой, ценителям фантастики точно понравится!!!!! 7/10
vasia007
Стаж: 12 лет 2 мес.
Сообщений: 58
Ratio: 17
Поблагодарили: 32
100%
dantezzz писал(а): Перейти к сообщению
Для для нынешнего времени фильм оказался неплохой, Коннери еще такой молодой, ценителям фантастики точно понравится!!!!! 7/10
Спасибо за отзыв! А то думаю качать/не качать...
Показать сообщения:   
Начать новую тему   Ответить на тему    Торрент-трекер NNM-Club -> Классика кино и Старые фильмы до 90-х -> Старые Зарубежные Фильмы (HD, UHD, UHD-LQ, 3D) Часовой пояс: GMT + 3
Страница 1 из 1