Классический форум-трекер
canvas not supported
Нас вместе: 4 077 796

Американский пирог 4 Музыкальный лагерь / American Pie Presents Band Camp (2005) DVD9


 
 
RSS
Начать новую тему   Ответить на тему    Торрент-трекер NNM-Club -> Зарубежное кино -> Зарубежные Фильмы (DVD)
Автор Сообщение
Loko73loko ®

Online
Стаж: 8 лет 9 мес.
Сообщений: 334
Ratio: 24,182
Поблагодарили: 10752
100%
Откуда: Мистик фолс
russia.gif
Американский пирог 4 Музыкальный лагерь / American Pie Presents Band Camp (2005) DVD9
Русское название: Американский пирог 4 Музыкальный лагерь
Оригинальное название: American Pie Presents Band Camp
Год выпуска: 2005
Жанр: Комедия

Описание фильма:
На этот раз все крутится вокруг Мэта Стифлера, младшего брата Стива. Мэт отправляется в летний лагерь, где отрывается по полной. Папа Джима вновь появляется в роли мудрого наставника, который пытается помочь младшему брату Стифлера вернуться на путь истинный. Поначалу Мэт обвешал весь лагерь скрытыми камерами, чтобы снять то, чем озабоченные ученики занимаются летом, вдали от родительского взгляда. Но камеры отошли на задний план, когда случилось непоправимое... Он влюбился в неотразимую Элис...

Режиссер: Стив Раш
Актеры: Тэд Хилдженбринк, Ариэллa Кеббель, Джейсон Эрлс, Тара Киллиан, Карла Алапонте, Мэтт Бэйкер

Продолжительность: 01:27:18
Перевод: Дублированный
Язык субтитров: Английские, русские
Вид субтитров: Вшитые



Дата мировой премьеры: 31 октября 2005
Дата российской премьеры: 31 октября 2005

Видеокодек: MPEG-2
Битрейт видео: 6669 Кбит/сек
Размер кадра: 720x576
Качество видео: DVD9
АУДИО 1: (Dolby AC3, 6 ch 384 Кбит/сек ) английский
АУДИО 2: (Dolby AC3, 6 ch 384 Кбит/сек ) русский
АУДИО 3: ( (DTS, 6 ch 755 Кбит/сек ) английский
Сэмпл: Ссылка
General
Формат : MPEG-PS
Размер файла : 1024 Мбайт
Продолжительность : 17 м.
Режим общего битрейта : Переменный
Общий поток : 8358 Кбит/сек

Видео
Идентификатор : 224 (0xE0)
Формат : MPEG Video
Версия формата : Version 2
Профиль формата : Main@Main
Параметр BVOP формата : Да
Параметр матрицы формата : Выборочная
Продолжительность : 17 м.
Вид битрейта : Переменный
Битрейт : 6669 Кбит/сек
Максимальный битрейт : 9800 Кбит/сек
Ширина : 720 пикселей
Высота : 576 пикселей
Соотношение сторон : 16:9
Частота кадров : 25,000 кадров/сек
Стандарт вещания : PAL
Цветовое пространство : YUV
Субдискретизация насыщенности : 4:2:0
Битовая глубина : 8 бит
Тип развёртки : Чересстрочная
Порядок развёртки : Верхнее поле первое
Метод сжатия : С потерями
Бит/(Пиксели*Кадры) : 0.643
Размер потока : 817 Мбайт (80%)

Аудио #1
Идентификатор : 189 (0xBD)-128 (0x80)
Формат : AC-3
Формат/Информация : Audio Coding 3
Расширение режима : CM (complete main)
Параметр Endianness формата : Big
Режим смешивания : DVD-Video
Продолжительность : 17 м.
Вид битрейта : Постоянный
Битрейт : 384 Кбит/сек
Каналы : 6 каналов
Расположение каналов : Front: L C R, Side: L R, LFE
Частота : 48,0 КГц
Битовая глубина : 16 бит
Метод сжатия : С потерями
Размер потока : 47,0 Мбайт (5%)

Аудио #2
Идентификатор : 189 (0xBD)-130 (0x82)
Формат : AC-3
Формат/Информация : Audio Coding 3
Расширение режима : CM (complete main)
Параметр Endianness формата : Big
Режим смешивания : DVD-Video
Продолжительность : 17 м.
Вид битрейта : Постоянный
Битрейт : 384 Кбит/сек
Каналы : 6 каналов
Расположение каналов : Front: L C R, Side: L R, LFE
Частота : 48,0 КГц
Битовая глубина : 16 бит
Метод сжатия : С потерями
Размер потока : 47,0 Мбайт (5%)

Аудио #3
Идентификатор : 189 (0xBD)-137 (0x89)
Формат : DTS
Формат/Информация : Digital Theater Systems
Режим смешивания : DVD-Video
Продолжительность : 17 м.
Вид битрейта : Постоянный
Битрейт : 755 Кбит/сек
Каналы : 6 каналов
Расположение каналов : Front: L C R, Side: L R, LFE
Частота : 48,0 КГц
Битовая глубина : 16 бит
Метод сжатия : С потерями
Размер потока : 92,4 Мбайт (9%)

Текст
Идентификатор : 189 (0xBD)-32 (0x20)
Формат : RLE
Формат/Информация : Run-length encoding
Режим смешивания : DVD-Video
VTS_01 :
Play Length: 01:27:18
Video: PAL 16:9 (720x576) VBR, Auto Letterboxed
Audio:
English (Dolby AC3, 6 ch)
English (DTS, 6 ch)
Russian (Dolby AC3, 6 ch)
Subtitles:
English
Russian

VTS_02 :
Play Length: 00:04:17+00:17:24+00:05:36+00:14:40
Video: PAL 4:3 (720x576) VBR
Audio:
English (Dolby AC3, 2 ch)
Subtitles:
English
Russian

VTS_03 :
Play Length: 00:11:51
Video: PAL 4:3 (720x576) VBR
Audio:
English (Dolby AC3, 2 ch)
Subtitles:
English
Russian

VTS_04 :
Play Length: 00:01:32
Video: PAL 4:3 (720x576) VBR
Audio:
English (Dolby AC3, 2 ch)

VTS_05 :
Play Length: 00:00:24
Video: PAL 16:9 (720x576) VBR, Auto Letterboxed
Audio:
English (Dolby AC3, 6 ch)

VTS_06 :
Play Length: 00:00:21
Video: PAL 16:9 (720x576) VBR, Auto Letterboxed
Audio:
English (Dolby AC3, 2 ch)
English (DTS, 6 ch)

VTS_07 :
Play Length: 00:00:45
Video: PAL 16:9 (720x576) VBR, Auto Letterboxed
Audio:
English (Dolby AC3, 2 ch)

VTS_08 :
Play Length: 00:00:14+00:00:10
Video: PAL 4:3 (720x576) VBR
Audio:
English (Dolby AC3, 2 ch)

* Menus Information *

VIDEO_TS Menu
Video:
PAL 16:9 (720x576) VBR
Auto Pan&Scan
English Language Unit :
Title Menu

VTS_01 Menu
Video:
PAL 16:9 (720x576) VBR
Auto Pan&Scan
English Language Unit :
Root Menu
Subpicture Menu
Audio Menu
Chapter (PTT) Menu

VTS_02 Menu
Video:
PAL 4:3 (720x576) VBR
English Language Unit :
Root Menu

VTS_03 Menu
Video:
PAL 4:3 (720x576) VBR
English Language Unit :
Root Menu

VTS_04 Menu
Video:
PAL 4:3 (720x576) VBR
English Language Unit :
Root Menu

VTS_05 Menu
Video:
PAL 16:9 (720x576) VBR
Auto Letterboxed
English Language Unit :
Root Menu

VTS_06 Menu
Video:
PAL 4:3 (720x576) VBR
English Language Unit :
Root Menu

VTS_07 Menu
Video:
PAL 4:3 (720x576) VBR
English Language Unit :
Root Menu

VTS_08 Menu
Video:
PAL 16:9 (720x576) VBR
Auto Letterboxed
English Language Unit :
Root Menu
Дополнительные материалы: Неудачные дубли
Удаленные сцены
Неприличный дневник музыкального лагеря
Неприличные секреты лагеря
Секретный материал отснятый “бродячей камерой”
Видеоклип “Bady Got Back”
Скриншоты:


Время раздачи: с 14:00 до 1:00
[NNM-Club.ru]_Amerikanckij.Pirog.4.Muzikalniy.lager.2005.DVD-9.torrent
 Торрент: Платиновая раздача  Зарегистрирован
 
Скачать


 Зарегистрирован:   10 Июл 2012 17:44:36
 Размер:   7,58 GB  (
 Рейтинг:   3,9 (Голосов: 26)
 Поблагодарили:   39
 Проверка:   Оформление проверено модератором 10 Июл 2012 23:21:03
Как cкачать  ·  Как раздать  ·  Правильно оформить  ·  Поднять ратио!  
Показать сообщения:   
Начать новую тему   Ответить на тему    Торрент-трекер NNM-Club -> Зарубежное кино -> Зарубежные Фильмы (DVD) Часовой пояс: GMT + 3
Страница 1 из 1