Классический форум-трекер
canvas not supported
Нас вместе: 4 079 319

Американский пирог: Все в сборе / American Reunion (2012) [1080p] BDRemux <LINE>


 
 
RSS
Начать новую тему   Ответить на тему    Торрент-трекер NNM-Club -> Архив торрентов -> Архив Видео
Автор Сообщение
Loko73loko ®
Стаж: 8 лет 10 мес.
Сообщений: 343
Ratio: 26,235
Поблагодарили: 11928
100%
Откуда: Мистик фолс
russia.gif
Американский пирог: Все в сборе / American Reunion (2012) [1080p] BDRemux <LINE>
Русское название: Американский пирог: Все в сборе
Оригинальное название: American Reunion
Год выпуска: 2012
Жанр: Комедия

Описание фильма:
Герои «Американского пирога» встречаются вновь спустя 10 лет. Они докажут, что даже время и расстояние не в силах разрушить их дружбу. Летом 1999-го четверо мичиганских парней решили расстаться с невинностью. Прошли годы, и теперь друзья вернулись домой уже повзрослевшими, чтобы вспомнить прошлое и оторваться на полную катушку.

Режиссер: Джон Харвитц, Хейден Шлоссберг
Актеры: Джейсон Биггз, Элисон Хэннигэн, Крис Клейн, Томас Иэн Николас, Тара Рид, Шонн Уильям Скотт, Мена Сувари, Эдди Кэй Томас, Джон Чо, Дженнифер Кулидж

Продолжительность: 01:52:52
Перевод: Дублированный



Дата мировой премьеры: 4 апреля 2012
Дата российской премьеры: 5 апреля 2012
Дата выхода DVD релиза: 9 августа 2012

Видеокодек: MPEG-4 AVC/H.264
Битрейт видео: ~20,3 Мбит/сек
Размер кадра: 1920x1080
Качество видео: BDRemux
АУДИО 1: AC3, 6 ch, 384 Кбит/с), Русский
АУДИО 2: (DTS, 6 ch, 1510 Кбит/с), русский
АУДИО 3: (DTS-HD МА, 6 ch, 3551 Кбит/с) английский
Сэмпл: Ссылка
Формат : Matroska
Версия формата : Version 2
Размер файла : 19,8 Гбайт
Продолжительность : 1 ч. 52 м.
Режим общего битрейта : Переменный
Общий поток : 25,1 Мбит/сек
Название фильма : --SCHUMAHER--
Дата кодирования : UTC 2012-07-04 14:42:21
Программа кодирования : mkvmerge v5.6.0 ('Kenya Kane') built on May 27 2012 16:44:04
Библиотека кодирования : libebml v1.2.3 + libmatroska v1.3.0

Видео
Идентификатор : 1
Формат : AVC
Формат/Информация : Advanced Video Codec
Профиль формата : High@L4.1
Параметр CABAC формата : Да
Параметр ReFrames формата : 4 кадра
Идентификатор кодека : V_MPEG4/ISO/AVC
Продолжительность : 1 ч. 52 м.
Вид битрейта : Переменный
Битрейт : 20,3 Мбит/сек
Максимальный битрейт : 35,0 Мбит/сек
Ширина : 1920 пикселей
Высота : 1080 пикселей
Соотношение сторон : 16:9
Частота кадров : 23,976 кадра/сек
Цветовое пространство : YUV
Субдискретизация насыщенности : 4:2:0
Битовая глубина : 8 бит
Тип развёртки : Прогрессивная
Бит/(Пиксели*Кадры) : 0.408
Размер потока : 16,0 Гбайт (81%)
Язык : English
Default : Да
Forced : Да

Аудио #1
Идентификатор : 2
Формат : AC-3
Формат/Информация : Audio Coding 3
Расширение режима : CM (complete main)
Параметр Endianness формата : Big
Идентификатор кодека : A_AC3
Продолжительность : 1 ч. 52 м.
Вид битрейта : Постоянный
Битрейт : 384 Кбит/сек
Каналы : 6 каналов
Расположение каналов : Front: L C R, Side: L R, LFE
Частота : 48,0 КГц
Битовая глубина : 16 бит
Метод сжатия : С потерями
Размер потока : 310 Мбайт (2%)
Заголовок : DUB
Язык : Russian
Default : Да
Forced : Да

Аудио #2
Идентификатор : 3
Формат : DTS
Формат/Информация : Digital Theater Systems
Идентификатор кодека : A_DTS
Продолжительность : 1 ч. 52 м.
Вид битрейта : Постоянный
Битрейт : 1510 Кбит/сек
Каналы : 6 каналов
Расположение каналов : Front: L C R, Side: L R, LFE
Частота : 48,0 КГц
Битовая глубина : 24 бит
Метод сжатия : С потерями
Размер потока : 1,19 Гбайт (6%)
Заголовок : MVO
Язык : Russian
Default : Нет
Forced : Нет

Аудио #3
Идентификатор : 4
Формат : DTS
Формат/Информация : Digital Theater Systems
Профиль формата : MA / Core
Идентификатор кодека : A_DTS
Продолжительность : 1 ч. 52 м.
Вид битрейта : Переменный
Битрейт : 2452 Кбит/сек / 1510 Кбит/сек
Каналы : 6 каналов
Расположение каналов : Front: L C R, Side: L R, LFE
Частота : 48,0 КГц
Битовая глубина : 24 бит
Метод сжатия : Без потерь / Lossy
Язык : English
Default : Нет
Forced : Нет

Меню
00:00:00.000 : en:
00:04:48.746 : en:
00:08:58.287 : en:
00:14:26.240 : en:
00:18:52.172 : en:
00:23:37.624 : en:
00:27:29.147 : en:
00:32:01.627 : en:
00:40:35.849 : en:
00:45:38.985 : en:
00:52:31.356 : en:
00:59:34.779 : en:
01:05:54.323 : en:
01:10:09.787 : en:
01:14:03.813 : en:
01:23:02.185 : en:
01:27:57.063 : en:
01:36:03.215 : en:
01:42:07.746 : en:
01:48:11.943 : en:
Сохранены оригинальные чаптеры как на Blu-ray.
Звук :
1) Дублированный (очищенный Line, присутствуют посторонние шумы) - AC3, 6 ch, 384 Кбит/с
2) Профессиональный многоголосый (голоса из дубляжа, в некоторых местах есть эхо) - DTS, 6 ch, 1510 Кбит/с
Скриншоты:


Время раздачи: 14:00 до 1:00
[NNM-Club.ru]_Amerikanskij.pirog-Vse.v.sbore(Teatralnaja.versija).2012.MPEG-4-AVC.BluRay-Remux(1080p).mkv.torrent
 Торрент: Серебряная раздча  Зарегистрирован
 
Зарегистрируйтесь и скачайте торрент!
49,9 KB

 Зарегистрирован:   12 Июл 2012 14:18:59
 Размер:   19,8 GB  (
 Рейтинг:   4,6 (Голосов: 32)
 Поблагодарили:   77
 Проверка:   Оформление проверено модератором 12 Июл 2012 18:18:09
Как cкачать  ·  Как раздать  ·  Правильно оформить  ·  Поднять ратио!  
Топик был перенесен из форума Новинки (HD) в форум Архив Видео


Che13
Показать сообщения:   
Начать новую тему   Ответить на тему    Торрент-трекер NNM-Club -> Архив торрентов -> Архив Видео Часовой пояс: GMT + 3
Страница 1 из 1