Классический форум-трекер
canvas not supported
Нас вместе: 4 079 294

Кукловод / Choneung ryeokja (Haunters) (2010) BDRip [H.264/1080p] [AVO]


 
 
RSS
Начать новую тему   Ответить на тему    Торрент-трекер NNM-Club -> Зарубежное кино -> Азиатское кино (HD, UHD, UHD-LQ)
Автор Сообщение
grobov ®
Стаж: 7 лет 7 мес.
Сообщений: 146
Ratio: 28,04
Раздал: 22,51 TB
Поблагодарили: 8517
100%
russia.gif
Кукловод / Choneung ryeokja (Haunters) (2010) BDRip [H.264/1080p] [AVO]
Производство: Корея Южная / ZIP Cinema
Жанр: Фантастика, Боевик, Триллер, Драма

Режиссер: Ким Мин-сук
Актеры: Ко Су, Кан Дон-вон, Энес Кая, Чхве Дон-мун, Чон Ын-чхэ, Ян Кён Мо, Юн Да-гён, Ким Со-вон, Ли Сэ-ран, Рю Сон-ён

Описание:
В фирму под названием «Утопия» приходит устраиваться на работу молодой человек, Им Кьюн-нам. Ему 33 года от роду. Босс, человек с не меньшими странностями, чем название его компании, при первом же знакомстве рассказывает ему о таинственных событиях, недавно происшедших в офисе. И предлагает оформить его на должность представителя фирмы. На что молодой человек, недавно в результате несчастного случая потерявший работу, скрепя сердце вынужден согласиться. Он даже не догадывался о том, с кем ему, по роду службы, предстоит столкнуться. И не в переносном, а буквальном смысле...



Продолжительность: 01:47:37
Качество видео: BDRip
Перевод: Одноголосый закадровый
Субтитры: English

Видео: AVC/H.264, 1920x816 (2,35:1), ~11,3 Mbps
Аудио: DTS 5.1, 1510 Kbps - Русский AVO (Сербин Юрий)
Так думал кукловод, медиум. Никто не сможет противится его воле, что люди, что животные. Он особенный, он всемогущ. «Даже родители хотели меня убить», вспоминает он. Один взгляд его глаз, озоряющийся мистическим серым пламенем, заставляет людей делать все что ему захочется.

В один прекрасный день он идет на ограбление ламбарда на его пути оказыввается Им Кьюн-нам, который не реагирует на его способности. По стечению обстоятельств умирает владелец ломбарда. Им Кьюн-нам желает засадить убийцу за решетку, Всемогущий не может понять, что особенного в нем и это не дает ему покоя…

Сам сюжет интересен, постоянно держит в напряжении, думаешь что же будет дальше. Особенно порадовала концовка фильма и поэтому

Очень напряженный, динамичный, эффектный, зрелищный и красиво снятый фантастический триллер. Редкий случай фильма идеального во всём. Я чертовски сильно впечатлен и считаю, что этот фильм вы должны посмотреть точно.
Общее
Уникальный идентификатор : 243210300598322334421308633784293798624 (0xB6F8999E399E43059F8A7476D4B832E0)
Полное имя : D:\Downloads\Haunters.mkv
Формат : Matroska
Версия формата : Version 2
Размер файла : 9,62 Гбайт
Продолжительность : 1 ч. 47 м.
Общий поток : 12,8 Мбит/сек
Дата кодирования : UTC 2012-07-13 07:34:54
Программа кодирования : mkvmerge v5.6.0 ('Kenya Kane') built on Jun 29 2012 15:01:44
Библиотека кодирования : libebml v1.2.3 + libmatroska v1.3.0

Видео
Идентификатор : 1
Формат : AVC
Формат/Информация : Advanced Video Codec
Профиль формата : High@L4.1
Параметр CABAC формата : Да
Параметр ReFrames формата : 4 кадра
Режим смешивания : Header stripping
Идентификатор кодека : V_MPEG4/ISO/AVC
Продолжительность : 1 ч. 47 м.
Битрейт : 11,3 Мбит/сек
Ширина : 1920 пикселей
Высота : 816 пикселей
Соотношение сторон : 2,35:1
Частота кадров : 25,000 кадров/сек
Цветовое пространство : YUV
Субдискретизация насыщенности : 4:2:0
Битовая глубина : 8 бит
Тип развёртки : Прогрессивная
Бит/(Пиксели*Кадры) : 0.289
Размер потока : 8,30 Гбайт (86%)
Библиотека кодирования : x264 core 116 r2074 2641b9e
Настройки программы : cabac=1 / ref=4 / deblock=1:-3:-3 / analyse=0x3:0x113 / me=umh / subme=11 / psy=1 / psy_rd=1.00:0.00 / mixed_ref=1 / me_range=32 / chroma_me=1 / trellis=2 / 8x8dct=1 / cqm=0 / deadzone=21,11 / fast_pskip=0 / chroma_qp_offset=-4 / threads=12 / sliced_threads=0 / nr=0 / decimate=1 / interlaced=0 / bluray_compat=0 / constrained_intra=0 / bframes=8 / b_pyramid=2 / b_adapt=2 / b_bias=0 / direct=3 / weightb=1 / open_gop=0 / weightp=2 / keyint=250 / keyint_min=23 / scenecut=40 / intra_refresh=0 / rc_lookahead=60 / rc=2pass / mbtree=1 / bitrate=11300 / ratetol=1.0 / qcomp=0.70 / qpmin=0 / qpmax=69 / qpstep=4 / cplxblur=20.0 / qblur=0.5 / vbv_maxrate=50000 / vbv_bufsize=62500 / nal_hrd=none / ip_ratio=1.40 / aq=2:1.00
Язык : English
Default : Да
Forced : Нет
Основные цвета : BT.709-5, BT.1361, IEC 61966-2-4, SMPTE RP177
Характеристики трансфера : BT.709-5, BT.1361
Коэффициенты матрицы : BT.709-5, BT.1361, IEC 61966-2-4 709, SMPTE RP177

Аудио
Идентификатор : 2
Формат : DTS
Формат/Информация : Digital Theater Systems
Режим смешивания : Header stripping
Идентификатор кодека : A_DTS
Продолжительность : 1 ч. 47 м.
Вид битрейта : Постоянный
Битрейт : 1510 Кбит/сек
Каналы : 6 каналов
Расположение каналов : Front: L C R, Side: L R, LFE
Частота : 48,0 КГц
Битовая глубина : 24 бит
Метод сжатия : С потерями
Размер потока : 1,13 Гбайт (12%)
Заголовок : DTS AVO- Сербин Юрий
Язык : Russian
Default : Нет
Forced : Нет

Текст
Идентификатор : 3
Формат : UTF-8
Идентификатор кодека : S_TEXT/UTF8
Идентификатор кодека/Информация : UTF-8 Plain Text
Язык : English
Default : Нет
Forced : Нет
Скриншоты:


Все одноименные релизы в Клубе
Время раздачи: по мере возможности
[NNM-Club.ru]_Haunters.mkv.torrent
 Торрент: Платиновая раздача  Зарегистрирован
 
Скачать


Примагнититься
 Зарегистрирован:   16 Фев 2019 07:00:27
 Размер:   9,62 GB  (
 Рейтинг:   4,5 (Голосов: 50)
 Поблагодарили:   205
 Проверка:   Оформление проверено модератором 16 Фев 2019 07:24:44
Как cкачать  ·  Как раздать  ·  Правильно оформить  ·  Поднять ратио!  
Makcimalist
Стаж: 9 лет 7 мес.
Сообщений: 176
Ratio: 74,332
100%
russia.gif
Фильм необычный - но эффектный - впечатляет не слабо! Смотрел на оригинальном с сабами - не разочаровался. С одноголосым переводом - не знаю...
inkinaoksana
Стаж: 9 лет 11 мес.
Сообщений: 9
Ratio: 75,595
Поблагодарили: 11
100%
интересный
studio4u
Стаж: 9 лет 4 мес.
Сообщений: 298
Ratio: 5,147
0.05%
ничем не примечательный фильм, сказка для тех, "кому 10 и младше" :незнает:
feliks65
Стаж: 5 лет 10 мес.
Сообщений: 25
Ratio: 15,964
100%
Стоит посмотреть.Спасибо раздающему.
Игорь4433
Стаж: 6 лет 7 мес.
Сообщений: 147
Ratio: 48,981
100%
ussr.gif
Поставил фильму оценку 2, теперь сомневаюсь - не завысил ли ?
В общем чушь какая то
Показать сообщения:   
Начать новую тему   Ответить на тему    Торрент-трекер NNM-Club -> Зарубежное кино -> Азиатское кино (HD, UHD, UHD-LQ) Часовой пояс: GMT + 3
Страница 1 из 1