Классический форум-трекер
canvas not supported
Нас вместе: 4 078 832

Голубая волна / Blue Crush (2002) DVD9


 
 
RSS
Начать новую тему   Ответить на тему    Торрент-трекер NNM-Club -> Архив торрентов -> Архив Видео
Автор Сообщение
Loko73loko ®
Стаж: 8 лет 10 мес.
Сообщений: 343
Ratio: 25,998
Поблагодарили: 11888
100%
Откуда: Мистик фолс
russia.gif
Голубая волна / Blue Crush (2002) DVD9
Русское название: Голубая волна
Оригинальное название: Blue Crush
Год выпуска: 2002
Жанр: Мелодрама, Драма

Описание фильма:
В одном из самых красивейших уголков земли - на Гавайях, в домике на пляже живут три подруги Энни, Эден и Лина. Энни еще воспитывает свою младшую сестру Пенни, которую оставила ей на попечение их пьющая мать, уехавшая в Лас-Вегас. Днем девушки работают горничными в одной шикарной гостинице, а все свое свободное время они отдают серфингу.Покоряя волны, они скользят по поверхности океана на своих досках, но Энни этого мало. Она собирается получить еще большую порцию адреналина, приняв участие в соревнованиях мастеров-серфингистов. Все идет хорошо, пока не появляется Мэтт Толлман - парень, метящий в чемпионы. Хорошо это или нет, но Энни начинает терять «равновесие» и. .. влюбляется в Мэтта.

Режиссер: Джон Стокуэлл
Актеры: Кейт Босворт, Мишель Родригез, Мэттью Дэвис, Шон Робинсон, Пол Чиконе, Дэниз Би

Продолжительность: 01:40:02
Перевод: Многоголосый закадровый
Язык субтитров: Русские, английские, литовские, латвийские, эстонские
Вид субтитров: Вшитые



Дата мировой премьеры: 8 августа 2002
Дата российской премьеры: 8 августа 2002
Дата выхода DVD релиза: 28 июня 2011

Видеокодек: MPEG-2
Битрейт видео: ~6691 Кбит/сек
Размер кадра: 720x576
Качество видео: DVD9
АУДИО 1: Русский (Dolby AC3,2 ch 192 Кбит/сек )
АУДИО 2: английский (Dolby AC3,2 ch 192 Кбит/сек )
АУДИО 3: английский (Dolby AC3, 6 ch 384 Кбит/сек)
Сэмпл: Ссылка
Формат : MPEG-PS
Размер файла : 1024 Мбайт
Продолжительность : 18 м.
Режим общего битрейта : Переменный
Общий поток : 7807 Кбит/сек

Видео
Идентификатор : 224 (0xE0)
Формат : MPEG Video
Версия формата : Version 2
Профиль формата : Main@Main
Параметр BVOP формата : Да
Параметр матрицы формата : Выборочная
Продолжительность : 18 м.
Вид битрейта : Переменный
Битрейт : 6691 Кбит/сек
Максимальный битрейт : 7970 Кбит/сек
Ширина : 720 пикселей
Высота : 576 пикселей
Соотношение сторон : 16:9
Частота кадров : 25,000 кадров/сек
Стандарт вещания : PAL
Цветовое пространство : YUV
Субдискретизация насыщенности : 4:2:0
Битовая глубина : 8 бит
Тип развёртки : Чересстрочная
Порядок развёртки : Верхнее поле первое
Метод сжатия : С потерями
Бит/(Пиксели*Кадры) : 0.645
Размер потока : 877 Мбайт (86%)

Аудио #1
Идентификатор : 189 (0xBD)-128 (0x80)
Формат : AC-3
Формат/Информация : Audio Coding 3
Расширение режима : CM (complete main)
Параметр Endianness формата : Big
Режим смешивания : DVD-Video
Продолжительность : 18 м.
Вид битрейта : Постоянный
Битрейт : 384 Кбит/сек
Каналы : 6 каналов
Расположение каналов : Front: L C R, Side: L R, LFE
Частота : 48,0 КГц
Битовая глубина : 16 бит
Метод сжатия : С потерями
Размер потока : 50,3 Мбайт (5%)

Аудио #2
Идентификатор : 189 (0xBD)-129 (0x81)
Формат : AC-3
Формат/Информация : Audio Coding 3
Расширение режима : CM (complete main)
Параметр Endianness формата : Big
Режим смешивания : DVD-Video
Продолжительность : 18 м.
Вид битрейта : Постоянный
Битрейт : 192 Кбит/сек
Каналы : 2 канала
Расположение каналов : Front: L R
Частота : 48,0 КГц
Битовая глубина : 16 бит
Метод сжатия : С потерями
Размер потока : 25,2 Мбайт (2%)

Аудио #3
Идентификатор : 189 (0xBD)-130 (0x82)
Формат : AC-3
Формат/Информация : Audio Coding 3
Профиль формата : Dolby Digital
Расширение режима : CM (complete main)
Параметр Endianness формата : Big
Режим смешивания : DVD-Video
Продолжительность : 18 м.
Вид битрейта : Постоянный
Битрейт : 192 Кбит/сек
Каналы : 2 канала
Расположение каналов : Front: L R
Частота : 48,0 КГц
Битовая глубина : 16 бит
Метод сжатия : С потерями
Размер потока : 25,2 Мбайт (2%)

Аудио #4
Идентификатор : 189 (0xBD)-131 (0x83)
Формат : AC-3
Формат/Информация : Audio Coding 3
Профиль формата : Dolby Digital
Расширение режима : CM (complete main)
Параметр Endianness формата : Big
Режим смешивания : DVD-Video
Продолжительность : 18 м.
Вид битрейта : Постоянный
Битрейт : 192 Кбит/сек
Каналы : 2 канала
Расположение каналов : Front: L R
Частота : 48,0 КГц
Битовая глубина : 16 бит
Метод сжатия : С потерями
Размер потока : 25,2 Мбайт (2%)

Текст #1
Идентификатор : 189 (0xBD)-37 (0x25)
Формат : RLE
Формат/Информация : Run-length encoding
Режим смешивания : DVD-Video
Продолжительность : 18 м.
Задержка видео : 2 с. 200 мс.

Текст #2
Идентификатор : 189 (0xBD)-38 (0x26)
Формат : RLE
Формат/Информация : Run-length encoding
Режим смешивания : DVD-Video
Продолжительность : 18 м.
Задержка видео : 2 с. 200 мс.

Текст #3
Идентификатор : 189 (0xBD)-39 (0x27)
Формат : RLE
Формат/Информация : Run-length encoding
Режим смешивания : DVD-Video
Продолжительность : 18 м.
Задержка видео : 2 с. 80 мс.

Текст #4
Идентификатор : 189 (0xBD)-40 (0x28)
Формат : RLE
Формат/Информация : Run-length encoding
Режим смешивания : DVD-Video
Продолжительность : 18 м.
Задержка видео : 2 с. 120 мс.

Текст #5
Идентификатор : 189 (0xBD)-41 (0x29)
Формат : RLE
Формат/Информация : Run-length encoding
Режим смешивания : DVD-Video
Продолжительность : 18 м.
Задержка видео : 2 с. 160 мс.

Текст #6
Идентификатор : 189 (0xBD)-42 (0x2A)
Формат : RLE
Формат/Информация : Run-length encoding
Режим смешивания : DVD-Video
Продолжительность : 18 м.
Задержка видео : 5 с. 600 мс.

Текст #7
Идентификатор : 189 (0xBD)-43 (0x2B)
Формат : RLE
Формат/Информация : Run-length encoding
Режим смешивания : DVD-Video
Продолжительность : 18 м.
Задержка видео : 5 с. 600 мс.

Текст #8
Идентификатор : 189 (0xBD)-44 (0x2C)
Формат : RLE
Формат/Информация : Run-length encoding
Режим смешивания : DVD-Video
Продолжительность : 18 м.
Задержка видео : 5 с. 640 мс.

Текст #9
Идентификатор : 189 (0xBD)-45 (0x2D)
Формат : RLE
Формат/Информация : Run-length encoding
Режим смешивания : DVD-Video
Продолжительность : 18 м.
Задержка видео : 5 с. 680 мс.

Текст #10
Идентификатор : 189 (0xBD)-46 (0x2E)
Формат : RLE
Формат/Информация : Run-length encoding
Режим смешивания : DVD-Video
Продолжительность : 18 м.
Задержка видео : 5 с. 720 мс.
Title: Golybaya.volna.2002.DVD-9
Size: 7.59 Gb ( 7 954 898,00 KBytes ) - DVD-9
Enabled regions: 1, 2, 3, 4, 5, 6, 7, 8

VTS_01 :
Play Length: 01:40:02
Video: PAL 16:9 (720x576) VBR, Auto Letterboxed
Audio:
English (Dolby AC3, 6 ch)
Russian (Dolby AC3, 2 ch)
English (Dolby AC3, 2 ch)
English (Dolby AC3, 2 ch)
Subtitles:
English
Russian
Latvian
Lithuanian
Estonian
English
Russian
Latvian
Lithuanian
Estonian
English
Russian
Latvian
Lithuanian
Estonian
Russian

VTS_02 :
Play Length: 00:02:36+00:02:26+00:01:42+00:02:17+00:03:48
Video: PAL 4:3 (720x576) VBR
Audio:
English (Dolby AC3, 2 ch)
English (Dolby AC3, 2 ch)
Subtitles:
English
Russian
Latvian
Lithuanian
Estonian

VTS_03 :
Play Length: 00:14:33+00:01:55
Video: PAL 4:3 (720x576) VBR
Audio:
English (Dolby AC3, 2 ch)
Subtitles:
English
Russian
Latvian
Lithuanian
Estonian

VTS_04 :
Play Length: 00:18:00+00:02:34
Video: PAL 4:3 (720x576) VBR
Audio:
English (Dolby AC3, 2 ch)
English (Dolby AC3, 2 ch)
Subtitles:
English
Russian
Latvian
Lithuanian
Estonian
English
Russian
Latvian
Lithuanian
Estonian

VTS_05 :
Play Length: 00:05:22
Video: PAL 4:3 (720x576) VBR
Audio:
English (Dolby AC3, 2 ch)

VTS_06 :
Play Length: 00:04:59
Video: PAL 4:3 (720x576) VBR
Audio:
English (Dolby AC3, 2 ch)
Subtitles:
English
Russian
Latvian
Lithuanian
Estonian

VTS_07 :
Play Length: 00:02:23
Video: PAL 4:3 (720x576) VBR
Audio:
English (Dolby AC3, 2 ch)
Subtitles:
English
Russian
Latvian
Lithuanian
Estonian

VTS_08 :
Play Length: 00:00:24
Video: PAL 16:9 (720x576) VBR, Auto Letterboxed
Audio:
English (Dolby AC3, 6 ch)

VTS_09 :
Play Length: 00:00:00+{00:00:00}+{00:00:00}+{00:00:00}
Video: PAL 4:3 (720x576) VBR

VTS_10 :
Play Length: 00:00:14
Video: PAL 4:3 (720x576) VBR
Audio:
English (Dolby AC3, 2 ch)

* Menus Information *

VIDEO_TS Menu
Video:
PAL 16:9 (720x576) VBR
Auto Pan&Scan
English Language Unit :
Title Menu

VTS_01 Menu
Video:
PAL 16:9 (720x576) VBR
Auto Pan&Scan
Audio:
Not specified (Dolby AC3, 2 ch)
English Language Unit :
Root Menu
Subpicture Menu
Audio Menu
Chapter (PTT) Menu

VTS_02 Menu
Video:
PAL 4:3 (720x576) VBR
English Language Unit :
Root Menu

VTS_03 Menu
Video:
PAL 4:3 (720x576) VBR
English Language Unit :
Root Menu

VTS_04 Menu
Video:
PAL 4:3 (720x576) VBR
English Language Unit :
Root Menu

VTS_05 Menu
Video:
PAL 4:3 (720x576) VBR
English Language Unit :
Root Menu

VTS_06 Menu
Video:
PAL 4:3 (720x576) VBR
English Language Unit :
Root Menu

VTS_07 Menu
Video:
PAL 4:3 (720x576) VBR
English Language Unit :
Root Menu

VTS_08 Menu
Video:
PAL 16:9 (720x576) VBR
Auto Letterboxed
English Language Unit :
Root Menu

VTS_09 Menu
Video:
PAL 4:3 (720x576) VBR
English Language Unit :
Root Menu

VTS_10 Menu
Video:
PAL 16:9 (720x576) VBR
Auto Letterboxed
English Language Unit :
Root Menu
- Коментарии актеров
- Комментарии режиссера
- Как монтировался фильм "Голубая волна"
- Не вошедшие в фильм эпизоды с комментариями режиссера
- Как снимался фильм "Голубая волна"
- Женская революция в серфинге Бултых! Серия лучших самых впечатляющих падений серфингистов, снятых во время производства фильма
- Бегущие по волнам. Серия лучших кадров с участием серфингистов, снятых во время производства фильма
- Скейтбординг
- Промоушн "Голубой волны"
- Мода и серфинг
- Мир серфинга
- Музыкальный клип Ленни Кравица "If I Could Fall in Love"
Скриншоты:


Время раздачи: 14:00 до 1:00
[NNM-Club.ru]_Golybaya.volna.2002.DVD-9.torrent
 Торрент: Золотая раздача  Зарегистрирован
 
Зарегистрируйтесь и скачайте торрент!
21,6 KB

 Зарегистрирован:   14 Июл 2012 01:06:35
 Размер:   7,59 GB  (
 Рейтинг:   4,4 (Голосов: 11)
 Поблагодарили:   19
 Проверка:   Оформление проверено модератором 14 Июл 2012 04:49:03
Как cкачать  ·  Как раздать  ·  Правильно оформить  ·  Поднять ратио!  
Загрузка...
abracadabr
Стаж: 10 лет 6 мес.
Сообщений: 666
Ratio: 11,096
100%
Субтитры не бывают латвийскими, только латышскими.
Топик был перенесен из форума Зарубежные Фильмы (DVD) в форум Архив Видео

Причина переноса: сида не было более месяца.
Alex_shadow
Показать сообщения:   
Начать новую тему   Ответить на тему    Торрент-трекер NNM-Club -> Архив торрентов -> Архив Видео Часовой пояс: GMT + 3
Страница 1 из 1