Классический форум-трекер
canvas not supported
Нас вместе: 4 095 210

Jimi Hendrix: Jimi Plays Berkeley (2012) [720p] BDRip


 
 
RSS
Начать новую тему   Ответить на тему    Торрент-трекер NNM-Club -> Театр и Музыкальное видео -> Концерты (HD, UHD, UHD-LQ)
Автор Сообщение
art-61 ®
Стаж: 8 лет 8 мес.
Сообщений: 1100
Ratio: 134,829
Поблагодарили: 141499
100%
Откуда: Санкт-Петербург
russia.gif
Jimi Hendrix: Jimi Plays Berkeley (2012) BDRip
Оригинальное название: Jimi Hendrix: Jimi Plays Berkeley
Год выпуска: 2012
Выпущено: США, Sony Legacy
Жанр: Psychedelic Rock

Описание фильма:
Это особое, расширенное издание Jimi Plays Berkey, демонстрирует одни из лучших выступлений, снятых в течение двух концертов в Berkeley Community Theatre 30 мая 1970 года.

Актеры: Джими Хендрикс
Дата мировой премьеры: 13 сентября 1971

Продолжительность: 01:04:55
Перевод: Не требуется



Лицензия

Видеокодек: MPEG-4 AVC/H.264
Битрейт видео: ~5720 Кбит/с
Размер кадра: 960x720
Качество видео: BDRip
Аудиокодек: DTS,6 ch
Битрейт аудио: 1510 Кбит/с
01. Jimi in Limousine
02. Afternoon Rehearsals
03. Johnny B. Goode
04. Hear My Train A Comin'
05. Start Spangled Banner
06. Purple Haze
07. Hey Baby (New Rising Sun)
08. Lover Man
09. I Don't Live Today
10. Machine Gun
11. Voodoo Child (Slight Return)
Общее
Уникальный идентификатор : 223440627710419114139054549479539350737 (0xA819197D6BB17E0F88E830D4282C1CD1)
Полное имя : E:\Jimi.Hendrix.Plays.Berkeley.2012.x264.BDRip.(720p).mkv
Формат : Matroska
Версия формата : Version 2
Размер файла : 3,28 Гбайт
Продолжительность : 1 ч. 4 м.
Общий поток : 7230 Кбит/сек
Дата кодирования : UTC 2012-07-13 18:12:28
Программа кодирования : mkvmerge v5.6.0 ('Kenya Kane') built on Jun 29 2012 15:01:44
Библиотека кодирования : libebml v1.2.3 + libmatroska v1.3.0

Видео
Идентификатор : 1
Формат : AVC
Формат/Информация : Advanced Video Codec
Профиль формата : High@L4.1
Параметр CABAC формата : Да
Параметр ReFrames формата : 5 кадров
Идентификатор кодека : V_MPEG4/ISO/AVC
Продолжительность : 1 ч. 4 м.
Битрейт : 5720 Кбит/сек
Ширина : 960 пикселей
Высота : 720 пикселей
Соотношение сторон : 4:3
Частота кадров : 23,976 кадра/сек
Цветовое пространство : YUV
Субдискретизация насыщенности : 4:2:0
Битовая глубина : 8 бит
Тип развёртки : Прогрессивная
Бит/(Пиксели*Кадры) : 0.345
Размер потока : 2,53 Гбайт (77%)
Библиотека кодирования : x264 core 125 r2200 999b753
Настройки программы : cabac=1 / ref=5 / deblock=1:0:0 / analyse=0x3:0x133 / me=umh / subme=8 / psy=1 / psy_rd=1.00:0.00 / mixed_ref=1 / me_range=16 / chroma_me=1 / trellis=1 / 8x8dct=1 / cqm=0 / deadzone=21,11 / fast_pskip=0 / chroma_qp_offset=-2 / threads=18 / lookahead_threads=3 / sliced_threads=0 / nr=0 / decimate=1 / interlaced=0 / bluray_compat=0 / constrained_intra=0 / bframes=3 / b_pyramid=2 / b_adapt=1 / b_bias=0 / direct=1 / weightb=1 / open_gop=0 / weightp=2 / keyint=250 / keyint_min=23 / scenecut=40 / intra_refresh=0 / rc_lookahead=40 / rc=2pass / mbtree=1 / bitrate=5720 / ratetol=1.0 / qcomp=0.60 / qpmin=0 / qpmax=69 / qpstep=4 / cplxblur=20.0 / qblur=0.5 / ip_ratio=1.40 / aq=1:1.00
Default : Да
Forced : Нет

Аудио
Идентификатор : 2
Формат : DTS
Формат/Информация : Digital Theater Systems
Идентификатор кодека : A_DTS
Продолжительность : 1 ч. 4 м.
Вид битрейта : Постоянный
Битрейт : 1510 Кбит/сек
Каналы : 6 каналов
Расположение каналов : Front: L C R, Side: L R, LFE
Частота : 48,0 КГц
Битовая глубина : 24 бит
Метод сжатия : С потерями
Размер потока : 701 Мбайт (21%)
Язык : English
Default : Да
Forced : Нет
Скриншоты:


Время раздачи: 24/7
[NNM-Club.ru]_Jimi.Hendrix.Plays.Berkeley.2012.x264.BDRip.(720p).mkv.torrent
 Торрент: Платиновая раздача  Зарегистрирован
 
Скачать


 Зарегистрирован:   14 Июл 2012 18:51:35
 Размер:   3,28 GB  (
 Рейтинг:   4,8 (Голосов: 31)
 Поблагодарили:   110
 Проверка:   Оформление проверено модератором 14 Июл 2012 23:10:38
Как cкачать  ·  Как раздать  ·  Правильно оформить  ·  Поднять ратио!  
Показать сообщения:   
Начать новую тему   Ответить на тему    Торрент-трекер NNM-Club -> Театр и Музыкальное видео -> Концерты (HD, UHD, UHD-LQ) Часовой пояс: GMT + 3
Страница 1 из 1