Классический форум-трекер
canvas not supported
Нас вместе: 4 102 451

Пришелец / Impostor (2001) [720p] BDRip


 
 
RSS
Начать новую тему   Ответить на тему    Торрент-трекер NNM-Club -> Зарубежное кино -> Зарубежные Фильмы (HD, UHD-LQ)
Автор Сообщение
romul7731 ®
Стаж: 9 лет 10 мес.
Сообщений: 203
Ratio: 26,708
Раздал: 25,4 TB
Поблагодарили: 21588
100%
Откуда: Донбасс
ussr.gif
Пришелец / Impostor (2001) [720p] BDRip
Русское название: Пришелец
Оригинальное название: Impostor
Год выпуска: 2001
Жанр: Фантастика, Боевик, Триллер

Описание фильма:
2079 год. Уже много лет земляне ведут войну с инопланетянами. Талантливый ученый Спенсер Олхэм создает уникальное оружие для борьбы с ними. Но в один прекрасный день его самого объявляют пришельцем и начинают широкомасштабную охоту.
В ситуации, когда его ищут все спецслужбы страны, Спенсер должен доказать свою невиновность и понять, кто он есть на самом деле…

Режиссер: Гэри Фледер / Gary Fleder
Актеры: Гэри Синиз, Мэдлин Стоу, Винсент Д`Онофрио, Шэлоуб Тони, Тим Гини, Элизабет Пенья, Гэри Дурдэн, Линдсэй Краузе, Мехи Файфер, Джон Папсидера, Тед Кинг

Продолжительность: 01:35:35
Перевод: Профессиональный (дублированный), Профессиональный (двухголосый закадровый), Авторский (одноголосый закадровый)
Субтитры: нет



Видеокодек: MPEG-4 AVC/H.264
Битрейт видео: ~5026 kbps
Размер кадра: 1280x720
Качество видео: BDRip
Аудио 1: Русский АС3, 6 ch, 448 kbps (Дубляж)
Аудио 2: Русский АС3, 6 ch, 448 kbps (Двухголосый закадровый, НТВ+)
Аудио 3: Русский АС3, 6 ch, 448 kbps (Одноголосый закадровый, Гаврилов)
Аудио 4: Английский DTS, 6 ch, 1510 kbps
За набор русских дорог большое спасибо undre19
Общее
Уникальный идентификатор : 237806353659131906991230689278080594209 (0xB2E7D676A33AAA408D67C018D2D83121)
Полное имя : Impostor.2001.BluRay.720p.DTS.x264.3xRus.Eng-CHD.mkv
Формат : Matroska
Версия формата : Version 2
Размер файла : 5,26 Гбайт
Продолжительность : 1 ч. 35 м.
Общий поток : 7874 Кбит/сек
Дата кодирования : UTC 2012-07-21 09:34:36
Программа кодирования : mkvmerge v4.6.0 ('Still Crazy After All These Years') сборка от Mar 10 2011 02:50:32
Библиотека кодирования : libebml v1.2.0 + libmatroska v1.1.0

Видео
Идентификатор : 1
Формат : AVC
Формат/Информация : Advanced Video Codec
Профиль формата : High@L4.1
Параметр CABAC формата : Да
Параметр ReFrames формата : 9 кадров
Идентификатор кодека : V_MPEG4/ISO/AVC
Продолжительность : 1 ч. 35 м.
Битрейт : 5026 Кбит/сек
Ширина : 1280 пикселей
Высота : 720 пикселей
Соотношение сторон : 16:9
Частота кадров : 23,976 кадра/сек
Цветовое пространство : YUV
Субдискретизация насыщенности : 4:2:0
Битовая глубина : 8 бит
Тип развёртки : Прогрессивная
Бит/(Пиксели*Кадры) : 0.227
Размер потока : 3,25 Гбайт (62%)
Библиотека кодирования : x264 core 120 r2164+656 2ff844c
Настройки программы : cabac=1 / ref=9 / deblock=1:-3:-3 / analyse=0x3:0x113 / me=umh / subme=10 / psy=1 / fade_compensate=0.00 / psy_rd=1.05:0.10 / mixed_ref=1 / me_range=32 / chroma_me=1 / trellis=2 / 8x8dct=1 / cqm=0 / deadzone=21,11 / fast_pskip=0 / chroma_qp_offset=-2 / threads=12 / sliced_threads=0 / nr=0 / decimate=1 / interlaced=0 / bluray_compat=0 / constrained_intra=0 / fgo=0 / bframes=6 / b_pyramid=2 / b_adapt=2 / b_bias=0 / direct=3 / weightb=1 / open_gop=0 / weightp=2 / keyint=250 / keyint_min=23 / scenecut=40 / intra_refresh=0 / rc_lookahead=40 / rc=2pass / mbtree=0 / bitrate=5026 / ratetol=1.0 / qcomp=0.70 / qpmin=0 / qpmax=69 / qpstep=4 / cplxblur=20.0 / qblur=0.5 / vbv_maxrate=20000 / vbv_bufsize=30000 / nal_hrd=none / ip_ratio=1.40 / pb_ratio=1.30 / aq=2:1.00
Язык : English
Default : Нет
Forced : Нет
Основные цвета : BT.709-5, BT.1361, IEC 61966-2-4, SMPTE RP177
Характеристики трансфера : BT.709-5, BT.1361
Коэффициенты матрицы : BT.709-5, BT.1361, IEC 61966-2-4 709, SMPTE RP177

Аудио #1
Идентификатор : 2
Формат : AC-3
Формат/Информация : Audio Coding 3
Расширение режима : CM (complete main)
Параметр Endianness формата : Big
Идентификатор кодека : A_AC3
Продолжительность : 1 ч. 35 м.
Вид битрейта : Постоянный
Битрейт : 448 Кбит/сек
Каналы : 6 каналов
Расположение каналов : Front: L C R, Side: L R, LFE
Частота : 48,0 КГц
Битовая глубина : 16 бит
Метод сжатия : С потерями
Размер потока : 306 Мбайт (6%)
Заголовок : AC3, 6 ch, 448 kbps - Дубляж
Язык : Russian
Default : Да
Forced : Нет

Аудио #2
Идентификатор : 3
Формат : AC-3
Формат/Информация : Audio Coding 3
Расширение режима : CM (complete main)
Параметр Endianness формата : Big
Идентификатор кодека : A_AC3
Продолжительность : 1 ч. 35 м.
Вид битрейта : Постоянный
Битрейт : 448 Кбит/сек
Каналы : 6 каналов
Расположение каналов : Front: L C R, Side: L R, LFE
Частота : 48,0 КГц
Битовая глубина : 16 бит
Метод сжатия : С потерями
Размер потока : 306 Мбайт (6%)
Заголовок : AC3, 6 ch, 448 kbps - DVO (HTB+ )
Язык : Russian
Default : Нет
Forced : Нет

Аудио #3
Идентификатор : 4
Формат : AC-3
Формат/Информация : Audio Coding 3
Расширение режима : CM (complete main)
Параметр Endianness формата : Big
Идентификатор кодека : A_AC3
Продолжительность : 1 ч. 35 м.
Вид битрейта : Постоянный
Битрейт : 448 Кбит/сек
Каналы : 6 каналов
Расположение каналов : Front: L C R, Side: L R, LFE
Частота : 48,0 КГц
Битовая глубина : 16 бит
Метод сжатия : С потерями
Размер потока : 306 Мбайт (6%)
Заголовок : AC3, 6 ch, 448 kbps - AVO (А. Гаврилов)
Язык : Russian
Default : Нет
Forced : Нет

Аудио #4
Идентификатор : 5
Формат : DTS
Формат/Информация : Digital Theater Systems
Идентификатор кодека : A_DTS
Продолжительность : 1 ч. 35 м.
Вид битрейта : Постоянный
Битрейт : 1510 Кбит/сек
Каналы : 6 каналов
Расположение каналов : Front: L C R, Side: L R, LFE
Частота : 48,0 КГц
Битовая глубина : 24 бит
Метод сжатия : С потерями
Размер потока : 1,01 Гбайт (19%)
Заголовок : DTS, 6 ch, 1510 kbps
Язык : English
Default : Нет
Forced : Нет
Скриншоты:


Время раздачи: с 18:00 до 07:00 по Киеву
[NNM-Club.ru]_Impostor.2001.BluRay.720p.DTS.x264.3xRus.Eng-CHD.mkv.torrent
 Торрент: Платиновая раздача  Зарегистрирован
 
Скачать


 Зарегистрирован:   24 Июл 2012 18:37:25
 Размер:   5,26 GB  (
 Рейтинг:   4,8 (Голосов: 43)
 Поблагодарили:   166
 Проверка:   Оформление проверено модератором 24 Июл 2012 20:48:17
Как cкачать  ·  Как раздать  ·  Правильно оформить  ·  Поднять ратио!  
zverev.alex
Стаж: 9 лет 10 мес.
Сообщений: 34
Ratio: 7,298
100%
russia.gif
классный фильм!
Onliner1968
Стаж: 8 лет 1 мес.
Сообщений: 152
Ratio: 5,546
100%
russia.gif
Где-то в середине фильма заметил - рабочие ШВАБРАМИ моют летающую штуковину)))))))))))) 2079)))))))))))
Warhamer
Стаж: 10 лет 10 мес.
Сообщений: 275
Ratio: 1,967
5.38%
witch.png
Onliner1968 писал(а): Перейти к сообщению
Где-то в середине фильма заметил - рабочие ШВАБРАМИ моют летающую штуковину)))))))))))) 2079)))))))))))

а что ты думаешь через 67 лет не будет швабр, будут также как и 100 лет назад
Рогатый
Стаж: 9 лет
Сообщений: 132
Ratio: 59,347
100%
Откуда: Континуум
pirates.png
Первый скрин, рота солдат...больно "звёздный десант" напоминает...даже плац вроде бы с их символикой)))
makc77780
Стаж: 8 лет 10 мес.
Сообщений: 18
Ratio: 1,614
100%
там все обмундирование из десанта))))не пропадать же добру...

Добавлено спустя 1 минуту 5 секунд:

там все обмундирование из десанта))))не пропадать же добру...
В фильме полиция города носила костюмы, позаимствованные у Пола Верховена, которые в свою очередь носили солдаты в фильме «Звездный десант» (1997).

Добавлено спустя 28 секунд:

В кинофильме мимоходом используются кадры из многих фантастических лент последнего времени: «Армагеддон» (Armageddon, 1998), «Гаттака» (Gattaca, 1997), «Звездный десант» (Starship Troopers, 1997) и др.
трезорыч
Стаж: 7 лет 8 мес.
Сообщений: 2713
Ratio: 74,088
100%
Откуда: Из Интернета
russia.gif
Отличный фильм ! :клево:
Показать сообщения:   
Начать новую тему   Ответить на тему    Торрент-трекер NNM-Club -> Зарубежное кино -> Зарубежные Фильмы (HD, UHD-LQ) Часовой пояс: GMT + 3
Страница 1 из 1