Классический форум-трекер
canvas not supported
Нас вместе: 4 083 345
Платим за отзывы

Доказательство смерти / Death Proof (2007) [H.264/1080р-LQ] BDRip


 
 
RSS
Начать новую тему   Ответить на тему    Торрент-трекер NNM-Club -> Зарубежное кино -> Зарубежные Фильмы (HD*Rip/LQ, DVDRip, SATRip, VHSRip)
Автор Сообщение
eXPpectant ®
Стаж: 10 лет
Сообщений: 2458
Ratio: 1628,264
Раздал: 18,08 TB
Поблагодарили: 299978
100%
Откуда: Нижний Тагил + Дмитров
russia.gif
Доказательство смерти / Death Proof (2007) [H.264/1080р-LQ] BDRip
Страна: США
Жанр: Триллер, Боевик, Криминал

Описание:
Три девицы отправляются отмечать день рождения одной из них, диск-жокея Джангл Джулии, в техасскую забегаловку. Там среди прочего обнаруживается вкрадчивый немолодой мужчина со шрамом, который представляется как Каскадер Майк. Он любит быструю езду, и не прочь подбросить до дома симпатичную девушку. А ещё он считает, что выйдет сухим из воды даже в случае самой ужасной аварии…

Режиссер: Квентин Тарантино
Актеры: Курт Рассел, Розарио Доусон, Ванесса Ферлито, Джордан Лэдд, Роуз МакГоун, Сидни Тамиа Пуатье.

Продолжительность: 01:53:36
Перевод: Дублированный

Дата мировой премьеры: 22 мая 2007
Дата российской премьеры: 7 июня 2007, «West»
Дата выхода DVD релиза: 18 сентября 2007, «West Video»

Видеокодек: MPEG-4 AVC/H.264
Битрейт видео: ~5118 kb/s
Размер кадра: 1920x816
Качество видео: BDRip
Аудиокодек: AC3 5.1
Битрейт аудио: 384 kb/s
Сэмпл:
Общее
Уникальный идентификатор : 212025611576166208908427520897668890251 (0x9F82A5BE0C577AF3BEA2F069864C3E8B)
Полное имя : D:\Торрент раздача\Death.Proof.2007.x264.BDRip.1080p.DUB.mkv
Формат : Matroska
Версия формата : Version 2
Размер файла : 4,37 Гбайт
Продолжительность : 1 ч. 53 м.
Общий поток : 5501 Кбит/сек
Дата кодирования : UTC 2012-07-23 22:58:19
Программа кодирования : mkvmerge v5.5.0 ('Healer') built on Apr 6 2012 21:43:24
Библиотека кодирования : libebml v1.2.3 + libmatroska v1.3.0

Видео
Идентификатор : 1
Формат : AVC
Формат/Информация : Advanced Video Codec
Профиль формата : High@L4.0
Параметр CABAC формата : Да
Параметр ReFrames формата : 4 кадра
Идентификатор кодека : V_MPEG4/ISO/AVC
Продолжительность : 1 ч. 53 м.
Битрейт : 5118 Кбит/сек
Ширина : 1920 пикселей
Высота : 816 пикселей
Соотношение сторон : 2,35:1
Соотношение сторон в оригинале : 2,35:1
Частота кадров : 23,976 кадра/сек
Цветовое пространство : YUV
Субдискретизация насыщенности : 4:2:0
Битовая глубина : 8 бит
Тип развёртки : Прогрессивная
Бит/(Пиксели*Кадры) : 0.136
Размер потока : 3,97 Гбайт (91%)
Заголовок : Доказательство смерти
Библиотека кодирования : x264 core 125 r2200 999b753
Настройки программы : cabac=1 / ref=3 / deblock=1:0:0 / analyse=0x3:0x133 / me=hex / subme=7 / psy=1 / psy_rd=1.00:0.00 / mixed_ref=1 / me_range=16 / chroma_me=1 / trellis=1 / 8x8dct=1 / cqm=0 / deadzone=21,11 / fast_pskip=0 / chroma_qp_offset=-2 / threads=6 / lookahead_threads=1 / sliced_threads=0 / nr=0 / decimate=1 / interlaced=0 / bluray_compat=0 / constrained_intra=0 / bframes=3 / b_pyramid=2 / b_adapt=1 / b_bias=0 / direct=1 / weightb=1 / open_gop=0 / weightp=2 / keyint=240 / keyint_min=23 / scenecut=40 / intra_refresh=0 / rc_lookahead=40 / rc=2pass / mbtree=1 / bitrate=5118 / ratetol=1.0 / qcomp=0.60 / qpmin=0 / qpmax=69 / qpstep=4 / cplxblur=20.0 / qblur=0.5 / ip_ratio=1.40 / aq=1:1.00
Язык : English
Default : Да
Forced : Нет

Аудио
Идентификатор : 2
Формат : AC-3
Формат/Информация : Audio Coding 3
Расширение режима : CM (complete main)
Параметр Endianness формата : Big
Идентификатор кодека : A_AC3
Продолжительность : 1 ч. 53 м.
Вид битрейта : Постоянный
Битрейт : 384 Кбит/сек
Каналы : 6 каналов
Расположение каналов : Front: L C R, Side: L R, LFE
Частота : 48,0 КГц
Битовая глубина : 16 бит
Метод сжатия : С потерями
Размер потока : 312 Мбайт (7%)
Заголовок : Профессиональный (полное дублирование)
Язык : Russian
Default : Да
Forced : Нет
Сатурн, 2008 год
Номинации (1):
Лучшее специальное DVD-издание — «Grindhouse Presentation: Extended & Unrated»

Каннский кинофестиваль, 2007 год
Номинации (1):
Золотая пальмовая ветвь
На роль Трюкача Майка рассматривались кандидатуры Микки Рурка, Сильвестра Сталлоне и Винга Рэймса.
Машина с девушками врезается в рекламный плакат с фильмами «Очень страшное кино 4» (2006) и «Волчья яма» (2005).
Зои Белл, сыгравшая Зои в «Доказательстве смерти», самостоятельно исполнила все трюки в фильме. Она также была каскадером-дублером для Умы Турман в «Убить Билла».
В разговоре между Эбби, Зои, Ким и Ли мы узнаем, что парень Эбби изменил ей с дублершей Дэрил Ханны. Моника Стэггс, сыгравшая Ланну Фрэнк в «Доказательстве смерти», была дублершей Ханны в «Убить Билла часть 1» (2003) и «Убить Билла часть 2» (2004).
Квентин Тарантино назвал персонажа «Джангл Джулия Лукай» по имени своего ассистента Викки Лукай.
На костюме Мэри Элизабет Уинстэд написано «Vipers». Это – ссылка на Deadly Viper Assassination Squad (DiVAS) (Боевики отряда убийц – смертоносные гадюки) в «Убить Билла».
В винном магазине Ким говорит, что ей нужно сходить в туалет. Ли и Абернати отвечают: «Это немного больше информации, чем нам нужно знать». Это – ссылка на «Криминальное чтиво» (1994), где Ума Турман говорит то же самое Джону Траволте.
Один из телесериалов, которые упоминает Трюкач Майк, - «Вирджинец» (1962), где Курт Рассел сыграл одну из ролей.
Герой Майкла Паркса называет своего сына «Сыном номер 1». То же самое он делает в «Убить Билла часть 1» (2003).
Майкл Паркс, сыгравший шерифа Эрла МакГроу, также появляется в той же самой роли в «Планете страха» (2007), «Убить Билла часть 1» (2003) и «От заката до рассвета» (1996).
Две машины в финальной погоне «Доказательства смерти» - 1969 Dodge Charger и 1970 Dodge Challenger.
У Трюкача Майка есть шрам возле левого глаза. Снэйк Плисскен, которого также сыграл Курт Рассел, носил повязку на левом глазе.
Сцена, в которой девушки завтракают в кафе, очень похожа на начальную сцену «Бешеных псов» (1992).
В офисе доктора Дакоты Блок можно заметить листочек с напоминаниями о том, что нужно сделать. Последняя запись в списке – убить Билла – является ссылкой на одноименный фильм Квентина Тарантино.
В начале фильма на приборной панели автомобиля можно заметить множество солнцезащитных очков. Такой же кадр присутствует в «Убить Билла» (2003) и «Угнать за 60 секунд» (1974).
Во второй половине фильма сцена, где четыре девушки разговаривают в кафе, была снята одним планом. Её продолжительность составляет примерно 10 минут.
Одна из песен в музыкальном автомате – «Misirlou». Данная композиция также звучит на начальных титрах «Криминального чтива» (1994).
В «Баре у Уоррена» можно заметить вывеску «Только наличные» (CASH ONLY) с известной фотографией Джонни Кэша (Johnny Cash), показывающего средний палец.
Сильно заметные царапины и пузыри появлялись в 1970-х гг. только при окончании катушки, но никак не по ходу действия всего фильма.
Идея «Доказательства смерти» осенила Квентина Тарантино, когда он разговаривал со своим другом о покупке новой машины. Тарантино подумывал о покупке «Volvo», потому что «не хотел погибнуть в каком-нибудь ДТП, как, например, в «Криминальном чтиве» (1994). В отношении безопасности автомобиля друг Тарантино сказал: «Ты можешь купить любую машину и отдать её каскадерам, которые за $10,000-$15,000 сделают её абсолютно безопасной для водителя при любом ДТП».
Розарио Доусон пьёт содовую из стаканчика с эмблемой мексиканского ресторана «Acuna Boys». Акуна – это название города, где проходили съёмки «Музыканта» (1992) и «Отчаянного» (1995). В «Убить Билла часть 2» (2004) Невеста заезжает в Акуну, для того чтобы узнать, где скрывается Билл.
Инструментальная версия «The Last Race» Джека Ницше звучит во время начальных титров «Доказательства смерти». Данная композиция также играет во время начальных титров «Village of the Giants» (1965).
Рабочее название картины – «Thunder Bolt».
Автомобильный номер машины Трюкача Майка - JJZ-109. Точно такой же номер был у машины персонажа Стива МакКуина в фильме «Детектив Буллитт» (1968).
Машины Трюкача Майка – 1971/72 Chevy Nova SS и 1969 Dodge Charger.
Создатели специально «состарили» фильм, для того чтобы сымитировать картины, шедшие в грайнхаусах.
В фильме содержится несколько ссылок на «Криминальное чтиво» (1994), среди них бургер «Кахуна» и массаж ступни.
На автомобиле Ким на капоте есть наклейка «Pussy Wagon», что является отсылкой к «Убить Билла» где у главной героини был «Pussy Wagon» - шмаровозка.
Скриншоты:


Время раздачи: 24/7
[NNM-Club.ru]_Death.Proof.2007.x264.BDRip.1080p.DUB.torrent
 Торрент: Платиновая раздача  Зарегистрирован
 
Скачать


 Зарегистрирован:   24 Июл 2012 20:36:47
 Размер:   4,37 GB  (
 Рейтинг:   4,6 (Голосов: 76)
 Поблагодарили:   313
 Проверка:   Оформление проверено модератором 25 Июл 2012 07:56:07
Как cкачать  ·  Как раздать  ·  Правильно оформить  ·  Поднять ратио!  
Kreator1974
Стаж: 7 лет
Сообщений: 650
Ratio: 8,395
100%
ukraine.gif
Дурное но прикольное. ;)
sa2rn
 
Стаж: 8 лет 7 мес.
Сообщений: 385
Ratio: 0,681
100%
russia.gif
Доказательство смерти. Интересно, как тогда должно звучать название фильма "Пуленепробиваемый монах"...
Михаил142
Стаж: 7 лет 6 мес.
Сообщений: 51
Ratio: 3,518
24.44%
russia.gif
Это что? Экранка такая модная?
Показать сообщения:   
Начать новую тему   Ответить на тему    Торрент-трекер NNM-Club -> Зарубежное кино -> Зарубежные Фильмы (HD*Rip/LQ, DVDRip, SATRip, VHSRip) Часовой пояс: GMT + 3
Страница 1 из 1