Классический форум-трекер
canvas not supported
Нас вместе: 4 077 708

Ничего не вижу, ничего не слышу / See No Evil, Hear No Evil (1989) DVD5


 
 
RSS
Начать новую тему   Ответить на тему    Торрент-трекер NNM-Club -> Классика кино и Старые фильмы до 90-х -> Старые Зарубежные Фильмы (DVD)
Автор Сообщение
FedExe ®
Uploader 300+
Стаж: 9 лет 3 мес.
Сообщений: 9667
Ratio: 380,509
Поблагодарили: 926017
100%
Откуда: LoX - living off experien
Ничего не вижу, ничего не слышу / See No Evil, Hear No Evil (1989) DVD5
«MURDER! The blind guy couldn't see it. The deaf guy couldn't hear it. Now they're both wanted for it»

Производство: США | TriStar Pictures
Жанр: Боевик, Триллер, Комедия, Криминал

Режиссер: Артур Хиллер
Продюсер: Марвин Ворф, Эрл Бэррет, Бертт Харрис
Актеры: Ричард Прайор, Джин Уайлдер, Джоан Северанс, Кевин Спейси, Алан Норт, Энтони Зерби, Луис Гьямбальво, Керстен Чайлдз, Харди Роулз, Одри Дж. Нинан, Лорен Том, Джон Каподиче

Описание фильма: На глазах Дэйва совершается убийство, но он глухой. Уолли все слышал, но он слепой. Вместе они - идеальные свидетели преступления… для самих преступников и единственные подозреваемые для полицейских. И те и другие начинают поиски неуловимой парочки. Но вдвоем они оказываются хитрее своих преследователей. В конце концов, слепой с глухим решают сами вершить правосудие…


Возраст 16+: Зрителям, достигшим 16 лет
Рейтинг MPAA R: Лицам до 17 лет обязательно присутствие взрослого

Продолжительность: 01:41:58 (удалены титры)
Качество видео: DVD5

Перевод: авторский (одноголосый закадровый) Алексей Михалёв (встречается ненормативная лексика)
Субтитры: Отсутствуют

Видеокодек: MPEG-2
Битрейт видео: ~4 146 Kbps
Размер кадра: NTSC 4:3 (720x480)
Аудио 1: AC3, 2.0, 48 KHz, 192 Kbps, Русский
Аудио 2: AC3, 2.0, 48 KHz, 192 Kbps, Английский
Дополнительно: Трейлеры к фильмам
Меню: Английское, статичное
Title: See No Evil Hear No Evil
Size: 3.94 Gb ( 4 131 474,00 KBytes ) - DVD-5
Enabled regions: 1, 2, 3, 4, 5, 6, 7, 8
VTS_01 :
Play Length: 01:41:58
Video: NTSC 4:3 (720x480) VBR
Audio:
Russian (Dolby AC3, 2 ch)
English (Dolby AC3, 2 ch)
VTS_02 :
Play Length: 00:02:02
Video: NTSC 4:3 (720x480) VBR
Audio:
English (Dolby AC3, 2 ch)
VTS_03 :
Play Length: 00:02:44
Video: NTSC 4:3 (720x480) VBR
Audio:
English (Dolby AC3, 2 ch)
VTS_04 :
Play Length: 00:02:55
Video: NTSC 4:3 (720x480) VBR
Audio:
English (Dolby AC3, 2 ch)
VTS_05 :
Play Length: 00:02:34
Video: NTSC 4:3 (720x480) VBR
Audio:
English (Dolby AC3, 6 ch)
* Menus Information *
VIDEO_TS Menu
Video:
NTSC 4:3 (720x480) VBR
Audio:
Not specified (Dolby AC3, 2 ch)
English Language Unit :
VTS_01 Menu
Video:
NTSC 16:9 (720x480) VBR
Auto Pan&Scan
English Language Unit :
Root Menu
Subpicture Menu
Audio Menu
Chapter (PTT) Menu
VTS_02 Menu
Video:
NTSC 4:3 (720x480) VBR
English Language Unit :
Root Menu
VTS_03 Menu
Video:
NTSC 4:3 (720x480) VBR
English Language Unit :
Root Menu
VTS_04 Menu
Video:
NTSC 4:3 (720x480) VBR
Japanese Language Unit :
Root Menu
VTS_05 Menu
Video:
NTSC 4:3 (720x480) VBR
Japanese Language Unit :
Root Menu
General
[video] See No Evil Hear No Evil Custom\VIDEO_TS\VTS_01_1.VOB
Format : MPEG-PS
File size : 1 024 MiB
Duration : 30mn 58s
Overall bit rate : 4 622 Kbps

Video
ID : 224 (0xE0)
Format : MPEG Video
Format version : Version 2
Format profile : Main@Main
Format settings, BVOP : Yes
Format settings, Matrix : Default
Duration : 30mn 58s
Bit rate mode : Variable
Bit rate : 4 146 Kbps
Nominal bit rate : 9 800 Kbps
Width : 720 pixels
Height : 480 pixels
Display aspect ratio : 4:3
Frame rate : 29.970 fps
Standard : NTSC
Color space : YUV
Chroma subsampling : 4:2:0
Bit depth : 8 bits
Compression mode : Lossy
Bits/(Pixel*Frame) : 0.400
Stream size : 919 MiB (90%)

Audio #1
ID : 189 (0xBD)-128 (0x80)
Format : AC-3
Format/Info : Audio Coding 3
Mode extension : CM (complete main)
Muxing mode : DVD-Video
Duration : 30mn 58s
Bit rate mode : Constant
Bit rate : 192 Kbps
Channel(s) : 2 channels
Channel positions : Front: L R
Sampling rate : 48.0 KHz
Bit depth : 16 bits
Compression mode : Lossy
Stream size : 42.5 MiB (4%)

Audio #2
ID : 189 (0xBD)-129 (0x81)
Format : AC-3
Format/Info : Audio Coding 3
Format profile : Dolby Digital
Mode extension : CM (complete main)
Muxing mode : DVD-Video
Duration : 30mn 58s
Bit rate mode : Constant
Bit rate : 192 Kbps
Channel(s) : 2 channels
Channel positions : Front: L R
Sampling rate : 48.0 KHz
Bit depth : 16 bits
Compression mode : Lossy
Stream size : 42.5 MiB (4%)

Text
ID : 224 (0xE0)-DVD-2
Format : EIA-608
Muxing mode : DVD-Video
Muxing mode, more info : Muxed in Video #1
Stream size : 0.00 Byte (0%)

Menu
Дополнительно: показано больше пикантностей по вертикали, чем в широкоэкранной версии

Скриншоты:


Все раздачи этого фильма в клубе
[NNM-Club.ru]_[video] See No Evil Hear No Evil Custom.torrent
 Торрент: Платиновая раздача  Зарегистрирован
 
Скачать


 Зарегистрирован:   31 Июл 2012 07:22:42
 Размер:   3,94 GB  (
 Рейтинг:   4,7 (Голосов: 45)
 Поблагодарили:   77
 Проверка:   Оформление проверено модератором 01 Авг 2012 11:44:56
Как cкачать  ·  Как раздать  ·  Правильно оформить  ·  Поднять ратио!  

_________________

Ну и конечно, данный материал выложен исключительно для ознакомления. После просмотра Вы обязаны удалить все файлы, отформатировать жесткий диск, разбить его молотком, облить кислотой и сжечь остатки в микроволновке.
sasha-taipan
Стаж: 8 лет 7 мес.
Сообщений: 115
Ratio: 2,768
Раздал: 7,365 TB
100%
singapore.gif
фильм супер! советую всем!приятного просмотра!

_________________
'Что человек курит?' Как правило возникает не когда ты слышишь, КАК он дышит, а когда видишь, ЧТО он пишет.
Serg#
Стаж: 9 лет 10 мес.
Сообщений: 27
Ratio: 2,949
100%
ussr.gif
Шикарный фильм! позитивный )))
Топик был перенесен из форума Зарубежные Фильмы (DVD) в форум Старые Зарубежные Фильмы (DVD)



Исправил релиз - напиши ЛС MAG3131, дав ссылку на релиз.
Если нет ответа 24 часа - нажми на кнопку "Обратить внимание модераторов".
Показать сообщения:   
Начать новую тему   Ответить на тему    Торрент-трекер NNM-Club -> Классика кино и Старые фильмы до 90-х -> Старые Зарубежные Фильмы (DVD) Часовой пояс: GMT + 3
Страница 1 из 1